.
Авторизация | Регистрация
Хочешь лучшие торренты? Добавь свой email!
Добавить

Торрент скачать бесплатно

» » Что Где Когда Весенняя серия игр. Игра 4 (2015.04.18) SATRip скачать через торрент бесплатно




    Что Где Когда Весенняя серия игр. Игра 4 (2015.04.18) SATRip скачать через торрент бесплатно

    Опубликовал: Админ | Дата: 20-04-2015, 04:00 | Просмотров: 68

    Телекомпания: Первый канал HD
    Жанр: Телепередача
    Ведущий: Борис Крюк

    Описание

    Популярнейшая командная интеллектуальная игра. В элитарном телевизионном казино игроки-знатоки зарабатывают деньги своим умом, отвечая на вопросы телезрителей. Проводятся летние и зимние игры. В эфире с 1975 года. За четверть века перед глазами телезрителей прошло более 170 игр. Сначала программа обосновалась в баре телецентра в Останкино и провела там 7 лет (с 1975 по 1982 гг.), затем переехала на улицу Герцена, д. О таком странном сюжете не догадывалась даже Тимошенко. 47 (с 1983 по 1986 гг.), потом были три прямых эфира из Болгарии в 1987 г., Центр Международной Торговли на Красной Пресне в 1988-1989 гг., и наконец, Охотничий домик в Нескучном саду, где она обитает по сегодняшний день. Сейчас на адрес Телекомпании Игра приходит по 150000-200000 вопросов в месяц. После обработки и проверки остается в среднем 75 вопросов в год. Каждую игру на столе находится 12 вопросов. Всего за 25 лет было задано 1514 вопросов. В играх клуба приняли участие 168 мужчин и 59 женщин. Всего через клуб прошло 227 знатоков, из них 41 иностранных. Лучшие были награждены призом Хрустальная сова.
    Продолжительность: 00: 45: 20
    Качество видео: SATRip
    Видеокодек: XviD
    Битрейт видео: 1800 kb/s
    Размер кадра: 720 x 400
    Аудиокодек: MP3, 2 ch
    Битрейт аудио: 128 kb/s
    Код:

    Формат : AVI
    Формат/Информация : Audio Video Interleave
    Размер файла : 628 Мбайт
    Продолжительность : 45 м.
    Общий поток : 1936 Кбит/сек
    Программа кодирования : VirtualDubMod 1.5.10.3 |www.virtualdub-fr.org|| (build 2550/release)
    Библиотека кодирования : VirtualDub build 29808/release
    Видео
    Идентификатор : 0
    Формат : MPEG-4 Visual
    Профиль формата : Advanced Simple@L5
    Параметр BVOP формата : 2
    Параметр QPel формата : Нет
    Параметр GMC формата : Без точки перехода
    Параметр матрицы формата : Default (H.263)
    Идентификатор кодека : XVID
    Идентификатор кодека/Подсказка : XviD
    Продолжительность : 45 м.
    Битрейт : 1799 Кбит/сек
    Ширина : 720 пикселей
    Высота : 400 пикселей
    Соотношение сторон : 16:9
    Частота кадров : 25, 000 кадров/сек
    Цветовое пространство : YUV
    Субдискретизация насыщенности : 4:2:0
    Битовая глубина : 8 бит
    Тип развёртки : Прогрессивная
    Метод сжатия : С потерями
    Бит/(Пиксели*Кадры) : 0.250
    Размер потока : 583 Мбайт (93%)
    Библиотека кодирования : XviD 1.2.1 (UTC 2008-12-04)
    Аудио
    Идентификатор : 1
    Формат : MPEG Audio
    Версия формата : Version 1
    Профиль формата : Layer 3
    Идентификатор кодека : 55
    Идентификатор кодека/Подсказка : MP3
    Продолжительность : 45 м.
    Вид битрейта : Постоянный
    Битрейт : 128 Кбит/сек
    Каналы : 2 канала
    Частота : 48, 0 КГц
    Метод сжатия : С потерями
    Размер потока : 41, 5 Мбайт (7%)
    Выравнивание : Соединение по промежуткам
    Продолжительность промежутка : 40 мс. (1, 00 видеокадр)
    Время предзагрузки промежутка : 504 мс.
    Библиотека кодирования : LAME3.99r
    Настройки программы : -m s -V 4 -q 2 -lowpass 17 -b 128


    Скриншоты для ознакомления




    Что Где Когда Весенняя серия игр. Игра 4 (2015.04.18) SATRip
    загрузка...
    Рейтинг →
     (голосов: 1, оценка 3/5, голосовать можно 1 раз )

    Другие торренты по теме:

  • Что Где Когда (2017.12.10) HDTV [H.264 / 1080i] (Зимняя серия: игра 3)
  • Что Где Когда Осенняя серия игр. Игра 4 (2014.09.27) SATRip
  • Что Где Когда Зимняя серия игр. Игра 1 (2014.11.29) HDTV [H.264 / 1080i] скачать через торрент бесплатно
  • Что Где Когда Зимняя серия игр. Игра 1 (2014.11.29) HDTVRip скачать через торрент бесплатно
  • Что Где Когда Зимняя серия игр. Игра 2 (2014.12.06) HDTV [H.264 / 1080i]
  • Что Где Когда Зимняя серия игр. Игра 2 (2014.12.06) HDTVRip
  • Что Где Когда Зимняя серия игр. Игра 3 (2014.12.13) HDTV [H.264 / 1080i]
  • Что Где Когда Зимняя серия игр. Игра 3 (2014.12.13) HDTVRip


    • Комментарии (0):

      Информация

      Информация

        Посетители, находящиеся в группе Гости, не могут оставлять комментарии в данной новости.

        ↓ Меню




        ↓ Опрос

        Вы добавили сайт в закладки?
        Да
        Нет


        Top 10 за месяц (Передачи)