.
Авторизация | Регистрация
Хочешь лучшие торренты? Добавь свой email!
Добавить

Торрент скачать бесплатно

» » Что Где Когда Весенняя серия игр. Игра 1 (2015.03.21) HDTV [H.264 / 1080i] скачать через торрент бесплатно




    Что Где Когда Весенняя серия игр. Игра 1 (2015.03.21) HDTV [H.264 / 1080i] скачать через торрент бесплатно

    Опубликовал: Админ | Дата: 22-03-2015, 04:00 | Просмотров: 121

    Телекомпания: Первый канал HD
    Жанр: Телепередача
    Ведущий: Борис Крюк

    Описание

    Популярнейшая командная интеллектуальная игра. В элитарном телевизионном казино игроки-знатоки зарабатывают деньги своим умом, отвечая на вопросы телезрителей. Проводятся летние и зимние игры. В эфире с 1975 года. За четверть века перед глазами телезрителей прошло более 170 игр. Сначала программа обосновалась в баре телецентра в Останкино и провела там 7 лет (с 1975 по 1982 гг.), затем переехала на улицу Герцена, д. 47 (с 1983 по 1986 гг.), потом были три прямых эфира из Болгарии в 1987 г., Центр Международной Торговли на Красной Пресне в 1988-1989 гг., и наконец, Охотничий домик в Нескучном саду, где она обитает по сегодняшний день. Сейчас на адрес Телекомпании Игра приходит по 150000-200000 вопросов в месяц. После обработки и проверки остается в среднем 75 вопросов в год. Каждую игру на столе находится 12 вопросов. Всего за 25 лет было задано 1514 вопросов. В играх клуба приняли участие 168 мужчин и 59 женщин. Всего через клуб прошло 227 знатоков, из них 41 иностранных. Лучшие были награждены призом Хрустальная сова.
    Продолжительность: 00: 52: 58
    Видеокодек: MPEG-TS(AVC)
    Битрейт видео: 9977 kb/s
    Размер кадра: 1920 x 1080
    Качество видео: HDTV
    Аудио 1: AC3, 6 ch, 384 kb/s
    Аудио 2: MP2, 2 ch, 192 kb/s
    Код:

    Формат : MPEG-TS
    Размер файла : 4, 12 Гбайт
    Продолжительность : 52 м.
    Режим общего битрейта : Переменный
    Общий поток : 11, 1 Мбит/сек
    Видео
    Идентификатор : 1902 (0x76E)
    Идентификатор меню : 92 (0x5C)
    Формат : AVC
    Формат/Информация : Advanced Video Codec
    Профиль формата :High@L4.0
    Параметр CABAC формата : Да
    Параметр ReFrames формата : 3 кадра
    Параметр GOP формата : M=4, N=32
    Идентификатор кодека : 27
    Продолжительность : 52 м.
    Битрейт : 9978 Кбит/сек
    Ширина : 1920 пикселей
    Высота : 1080 пикселей
    Соотношение сторон : 16:9
    Частота кадров : 25, 000 кадров/сек
    Стандарт вещания : Component
    Цветовое пространство : YUV
    Субдискретизация насыщенности : 4:2:0
    Битовая глубина : 8 бит
    Тип развёртки : Чересстрочная
    Порядок развёртки : Верхнее поле первое
    Бит/(Пиксели*Кадры) : 0.192
    Размер потока : 3, 69 Гбайт (90%)
    Основные цвета : BT.709
    Характеристики трансфера : BT.709
    Коэффициенты матрицы : BT.709
    Аудио #1
    Идентификатор : 2902 (0xB56)
    Идентификатор меню : 92 (0x5C)
    Формат : AC-3
    Формат/Информация : Audio Coding 3
    Расширение режима : CM (complete main)
    Параметр Endianness формата : Big
    Идентификатор кодека : 6
    Продолжительность : 52 м.
    Вид битрейта : Постоянный
    Битрейт : 384 Кбит/сек
    Каналы : 6 каналов
    Расположение каналов : Front: L C R, Side: L R, LFE
    Частота : 48, 0 КГц
    Битовая глубина : 16 бит
    Метод сжатия : С потерями
    Задержка видео : -40 мс.
    Размер потока : 145 Мбайт (3%)
    Язык : Russian
    Аудио #2
    Идентификатор : 2903 (0xB57)
    Идентификатор меню : 92 (0x5C)
    Формат : MPEG Audio
    Версия формата : Version 1
    Профиль формата : Layer 2
    Идентификатор кодека : 3
    Продолжительность : 52 м.
    Вид битрейта : Постоянный
    Битрейт : 224 Кбит/сек
    Каналы : 2 канала
    Частота : 48, 0 КГц
    Метод сжатия : С потерями
    Задержка видео : -40 мс.
    Размер потока : 84, 8 Мбайт (2%)
    Язык : Russian
    Текст
    Идентификатор : 2904 (0xB58)-888
    Идентификатор меню : 92 (0x5C)
    Формат : Teletext Subtitle
    Язык : Russian
    Меню
    Идентификатор : 902 (0x386)
    Идентификатор меню : 92 (0x5C)
    Продолжительность : 52 м.
    Список : 1902 (0x76E) (AVC)/2902 (0xB56) (AC-3, Russian)/2903 (0xB57) (MPEG Audio, Russian)/2904 (0xB58) ()
    Язык : /Russian/Russian


    Скриншоты для ознакомления




    Что Где Когда Весенняя серия игр. Игра 1 (2015.03.21) HDTV [H.264/1080i]
    загрузка...
    Рейтинг →
     (голосов: 1, оценка 5/5, голосовать можно 1 раз )

    Другие торренты по теме:

  • Что Где Когда Осенняя серия игр. Игра 4 (2014.09.27) SATRip
  • Что Где Когда Зимняя серия игр. Игра 1 (2014.11.29) HDTV [H.264 / 1080i] скачать через торрент бесплатно
  • Что Где Когда Зимняя серия игр. Игра 1 (2014.11.29) HDTVRip скачать через торрент бесплатно
  • Что Где Когда Зимняя серия игр. Игра 2 (2014.12.06) HDTV [H.264 / 1080i]
  • Что Где Когда Зимняя серия игр. Игра 2 (2014.12.06) HDTVRip
  • Что Где Когда Зимняя серия игр. Игра 3 (2014.12.13) HDTV [H.264 / 1080i]
  • Что Где Когда Зимняя серия игр. Игра 3 (2014.12.13) HDTVRip
  • Что Где Когда Зимняя серия игр. Игра 4 (2014.12.20) HDTV [H.264 / 1080i]


    • Комментарии (0):

      Информация

      Информация

        Посетители, находящиеся в группе Гости, не могут оставлять комментарии в данной новости.

        ↓ Меню




        ↓ Опрос

        Вы добавили сайт в закладки?
        Да
        Нет


        Top 10 за месяц (Передачи)