.
Авторизация | Регистрация
Хочешь лучшие торренты? Добавь свой email!
Добавить

Торрент скачать бесплатно

» » Горные лыжи. Кубок мира 2017–2018. 3-й Этап. Киллингтон (США). Женщины. Слалом (26.11.2017) WEB-DL [H.264 / 1080p-LQ] торрент скачать бесплатно




    Горные лыжи. Кубок мира 2017–2018. 3-й Этап. Киллингтон (США). Женщины. Слалом (26.11.2017) WEB-DL [H.264 / 1080p-LQ] торрент скачать бесплатно

    Опубликовал: Админ | Дата: 1-12-2017, 05:00 | Просмотров: 0

    Телекомпания: Eurosport 1 HD
    Жанр: Спорт
    Комментатор: Владимир Андреев

    Описание
    26 ноября 2017 года
    Кубок мира по горнолыжному спорту сезон любимого сериалаа 2017-2018 года.
    3-й Этап. Киллингтон (США).
    Женщины. Слалом
    Продолжительность: 01: 10: 01
    Качество видео: WEB-DL
    Язык озвучки: Русский
    Субтитры: отсутствуют
    Видео: AVC/H.264, 1920x1080 (16: 9), ~3685 Kbps
    Аудио: AAC, 2 ch, ~126 Kbps

    Общее
    Уникальный идентификатор : 194806179193976609151955464257156505737 (0x928E4E2DC9247254860823A3CA016089)
    Полное имя : F: SPORTГорные лыжиFIS Alpine Skiing World Cup 17-18.3. Killington (USA). Ladies(26.11.2017)_FIS Alpine Ski 3st. WC 2017-2018.Killington (USA). Ladies Slalom.mkv
    Формат : Matroska
    Версия формата : Version 4/Version 2
    Размер файла : 1, 86 Гбайт
    Продолжительность : 1 ч. 10 м.
    Общий поток : 3813 Кбит/сек
    Дата кодирования : UTC 2017-11-29 04: 19: 21
    Программа кодирования : mkvmerge v18.0.0 (\'Apricity\') 32-bit
    Библиотека кодирования : libebml v1.3.5 + libmatroska v1.4.8
    Видео
    Идентификатор : 1
    Формат : AVC
    Формат/Информация : Advanced Video Codec
    Профиль формата : High@L4
    Настройки формата : CABAC/2 Ref Frames
    Параметр CABAC формата : Да
    Параметр RefFrames формата : 2 кадра
    Идентификатор кодека : V_MPEG4/ISO/AVC
    Продолжительность : 1 ч. 10 м.
    Битрейт : 3685 Кбит/сек
    Ширина : 1920 пикселей
    Высота : 1080 пикселей
    Соотношение сторон : 16: 9
    Режим частоты кадров : Постоянный
    Частота кадров : 25, 000 кадров/сек
    Цветовое пространство : YUV
    Субдискретизация насыщенности : 4: 2: 0
    Битовая глубина : 8 бит
    Тип развёртки : Прогрессивная
    Бит/(Пиксели*Кадры) : 0.071
    Размер потока : 1, 80 Гбайт (97%)
    Default : Да
    Forced : Нет
    Цветовой диапазон : Limited
    Основные цвета : BT.709
    Характеристики трансфера : BT.709
    Коэффициенты матрицы : BT.709
    Аудио
    Идентификатор : 2
    Формат : AAC
    Формат/Информация : Advanced Audio Codec
    Профиль формата : LC
    Идентификатор кодека : A_AAC-2
    Продолжительность : 1 ч. 10 м.
    Битрейт : 126 Кбит/сек
    Каналы : 2 канала
    Расположение каналов : Front: L R
    Частота : 44, 1 КГц
    Частота кадров : 43, 066 кадра/сек (1024 SPF)
    Метод сжатия : С потерями
    Размер потока : 62, 9 Мбайт (3%)
    Язык : Russian
    Default : Да
    Forced : Нет

    Скриншоты для ознакомления



    Все одноименные релизы в Клубе
    Время раздачи: 24/7 (около 1 месяца)


    Горные лыжи. Кубок мира 2017–2018. 3-й Этап. Киллингтон (США). Женщины. Слалом (26.11.2017) WEB-DL [H.264/1080p-LQ]
    загрузка...
    Рейтинг →
     (голосов: 1, оценка 5/5, голосовать можно 1 раз )

    Другие торренты по теме:

  • Горные лыжи. Чемпионат мира 2017. Санкт-Мориц (Швейцария). Женщины. Альпийская комбинация (10.02.2016) WEB-DL [H.264 / 720p-LQ]
  • Горные лыжи. Чемпионат мира 2017. Санкт-Мориц (Швейцария). Мужчины. Супергигант (08.02.2016) HDTVRip [H.264 / 720p-LQ][hand made 50fps][RU,EN]
  • Горные лыжи. Чемпионат мира 2017. Санкт-Мориц (Швейцария). Мужчины. Супергигант (08.02.2016) WEB-DL [H.264 / 1080p-LQ]
  • Горные лыжи. Чемпионат мира 2017. Санкт-Мориц (Швейцария). Женщины. Супергигант (07.02.2016) WEB-DLRip [H.264 / 1080p-LQ][RU,EN]
  • Горные лыжи. Чемпионат мира 2017. Санкт-Мориц (Швейцария). Женщины. Супергигант (07.02.2016) WEB-DL [H.264 / 1080p-LQ]
  • Горные лыжи. Чемпионат мира 2017. Санкт-Мориц (Швейцария). Женщины. Супергигант (07.02.2016) HDTVRip [H.264 / 720p-LQ][hand made 50fps][RU,EN]
  • Горные лыжи. Зимняя Универсиада 2017. Алматы (Казахстан). Мужчины. Слалом 2-я попытка (07.02.2016) IPTV [H.264 / 720p-LQ][RU,EN]
  • Горные лыжи. Зимняя Универсиада 2017. Алматы (Казахстан). Женщины. Слалом - 2-я попытка (06.02.2016) WEB-DL [H.264 / 1080p-LQ]


    • Комментарии (0):

      Информация

      Информация

        Посетители, находящиеся в группе Гости, не могут оставлять комментарии в данной новости.

        ↓ Меню




        ↓ Опрос

        Вы добавили сайт в закладки?
        Да
        Нет


        Top 10 за месяц (Передачи)