.
Авторизация | Регистрация
Хочешь лучшие торренты? Добавь свой email!
Добавить

Торрент скачать бесплатно

» » Однажды в России (2017.11.29) HDTV [H.264 / 1080i] (сезон 6, выпуск 14) торрент скачать бесплатно




    Однажды в России (2017.11.29) HDTV [H.264 / 1080i] (сезон 6, выпуск 14) торрент скачать бесплатно

    Опубликовал: Админ | Дата: 1-12-2017, 05:00 | Просмотров: 0

    Телекомпания: ТНТ
    Производство: Россия
    Жанр: Юмористическое тв-шоу
    В ролях: Азамат Мусагалиев, Игорь Ласточкин, Ирина Чеснокова, Тимур Тания, Ольга Картункова, Александр Пташенчук, Максим Киселёв, Денис Дорохов, Заур Байцаев, Давид Цаллаев и др.

    Описание

    Шоу Однажды в России, как и многие проекты ТНТ, имеет оригинальный формат. Это будет реальный театр. То есть заранее написанный сценарий герой шоу Однажды в России постарается воплотить в повседневной жизни. А это совсем не так просто, как может показаться сначала, но зато очень смешно. Передача построена на чередовании скетчей. Создатели Однажды в России – Семен Слепаков и Слава Дусмухаметов, за плечами которых – продюсирование сериала Интерны, Наша RUSSIA, и других нашумевших фильмов и передач. В роли ведущего выступит Вадим Галыгин.
    Россия - богатейшая страна, в которой много нефти, газа и проблем. Новое шоу ТНТ Однажды в России не решает ни одной из них. Оно над ними смеется.

    Возраст: 16+ (зрителям, достигшим 16 лет)
    Дата премьеры в РФ: 28 сентября 2014

    Релиз от: 25Kuzmich
    Продолжительность: 00: 46: 58
    Качество видео: HDTV
    Субтитры: Отсутствуют
    Видео: AVC, 1920x1080 (16: 9), 25.000 fps, 9 008 Kbps (0.174 bit/pixel)
    Аудио: MP2, 48.0 KHz, 2 ch, 192 Kbps, CBR
    Код: выделить все
    Общее
    Идентификатор : 1 (0x1)
    Полное имя : D:[1]Однажды в РоссииОднажды в России. Сезон 6. Выпуск 14 (2017.11.29)_1080.ts
    Формат : MPEG-TS
    Размер файла : 3, 18 Гбайт
    Продолжительность : 46 м.
    Режим общего битрейта : Переменный
    Общий поток : 9680 Кбит/сек
    Видео
    Идентификатор : 207 (0xCF)
    Идентификатор меню : 2207 (0x89F)
    Формат : AVC
    Формат/Информация : Advanced Video Codec
    Профиль формата : High@L4
    Параметр CABAC формата : Да
    Параметр ReFrames формата : 4 кадра
    Идентификатор кодека : 27
    Продолжительность : 46 м.
    Битрейт : 9008 Кбит/сек
    Ширина : 1920 пикселей
    Высота : 1080 пикселей
    Соотношение сторон : 16:9
    Частота кадров : 25, 000 кадров/сек
    Стандарт вещания : Component
    Цветовое пространство : YUV
    Субдискретизация насыщенности : 4:2:0
    Битовая глубина : 8 бит
    Тип развёртки : Чересстрочная
    Порядок развёртки : Верхнее поле первое
    Бит/(Пиксели*Кадры) : 0.174
    Размер потока : 2, 96 Гбайт (93%)
    Цветовой диапазон : Limited
    Основные цвета : BT.709
    Характеристики трансфера : BT.709
    Коэффициенты матрицы : BT.709
    Аудио
    Идентификатор : 307 (0x133)
    Идентификатор меню : 2207 (0x89F)
    Формат : MPEG Audio
    Версия формата : Version 1
    Профиль формата : Layer 2
    Идентификатор кодека : 3
    Продолжительность : 46 м.
    Вид битрейта : Постоянный
    Битрейт : 192 Кбит/сек
    Каналы : 2 канала
    Частота : 48, 0 КГц
    Метод сжатия : С потерями
    Задержка видео : -40 мс.
    Размер потока : 64, 5 Мбайт (2%)
    Язык : Russian

    Скриншоты для ознакомления



    Все одноименные релизы в Клубе
    Время раздачи: 24/7. До первых 5 скачавших.


    Однажды в России (2017.11.29) HDTV [H.264/1080i] (сезон 6, выпуск 14)
    загрузка...
    Рейтинг →
     (голосов: 1, оценка 5/5, голосовать можно 1 раз )

    Другие торренты по теме:

  • Однажды в России (2017.12.13) WEB-DL [H.264 / 720p-LQ] (сезон 6, выпуск 16)
  • Однажды в России (2017.12.13) WEB-DLRip (сезон 6, выпуск 16)
  • Однажды в России (2017.12.13) SATRip (сезон 6, выпуск 16)
  • Однажды в России. Выпуск 1 (2014.09.28) SATRip
  • Однажды в России. Выпуск 2 (2014.10.05) SATRip скачать через торрент бесплатно
  • Однажды в России. Выпуск 2 (2014.10.05) WEB-DL [H.264 / 720p-LQ] [hand made 50fps] скачать через торрент бесплатно
  • Однажды в России. Выпуск 1 (2014.09.28) WEB-DL [H.264 / 720p-LQ] [hand made 50fps] скачать через торрент бесплатно
  • Однажды в России. Выпуск 3 (2014.10.12) WEB-DL [H.264 / 720p] [hand made 50fps]


    • Комментарии (0):

      Информация

      Информация

        Посетители, находящиеся в группе Гости, не могут оставлять комментарии в данной новости.

        ↓ Меню




        ↓ Опрос

        Вы добавили сайт в закладки?
        Да
        Нет


        Top 10 за месяц (Передачи)