.
Авторизация | Регистрация
Хочешь лучшие торренты? Добавь свой email!
Добавить

Торрент скачать бесплатно

» » Фигурное катание. Гран-при 2017-2018. 6-й Этап. Скейт Америка 2017. Лейк-Плэсид (США). Мужчины. Произвольная программа (25.11.2017) WEB-DL [H.264 / 720p-LQ] торрент скачать бесплатно




    Фигурное катание. Гран-при 2017-2018. 6-й Этап. Скейт Америка 2017. Лейк-Плэсид (США). Мужчины. Произвольная программа (25.11.2017) WEB-DL [H.264 / 720p-LQ] торрент скачать бесплатно

    Опубликовал: Админ | Дата: 1-12-2017, 05:00 | Просмотров: 0

    Телекомпания: TeleSport HD
    Жанр: Спорт
    Комментаторы: Денис Алхазов, Юлия Липницкая

    Описание
    25 ноября 2017 года, суббота. 23: 57 МСК
    Серия Гран-при по фигурному катанию сезон любимого сериалаа 2017-2018.
    Skate America 2017 — 6-й Этап Гран-при. Лейк-Плэсид (США)
    Мужчины. Произвольная программа
    Награждение победителей - Мужчины и Спортивные пары.
    Арена: Херб Брукс Арена (Лейк-Плэсид, США)
    Продолжительность: 02: 15: 00
    Качество видео: WEB-DL
    Язык озвучки: Русский
    Субтитры: отсутствуют
    Видео: AVC/H.264, 1280x720 (16: 9), ~2753 Kbps, 30 fps
    Аудио: AAC, 2 ch, ~256 Kbps

    Общее
    Уникальный идентификатор : 178713328563707798050001182235985628222 (0x8672EF62554E505EA7298771473ECC3E)
    Полное имя : F: SPORTФигурное катание6. ISU Grand Prix. Skate America 2017(25.11.2017)_ISU 6st.GP.Skate America 2017.Lake Placid(USA).2. Men FS.mkv
    Формат : Matroska
    Версия формата : Version 4/Version 2
    Размер файла : 2, 84 Гбайт
    Продолжительность : 2 ч. 14 м.
    Общий поток : 3012 Кбит/сек
    Дата кодирования : UTC 2017-11-28 05: 00: 30
    Программа кодирования : mkvmerge v18.0.0 (\'Apricity\') 32-bit
    Библиотека кодирования : libebml v1.3.5 + libmatroska v1.4.8
    Видео
    Идентификатор : 1
    Формат : AVC
    Формат/Информация : Advanced Video Codec
    Профиль формата : High@L3.1
    Настройки формата : CABAC/4 Ref Frames
    Параметр CABAC формата : Да
    Параметр RefFrames формата : 4 кадра
    Идентификатор кодека : V_MPEG4/ISO/AVC
    Продолжительность : 2 ч. 14 м.
    Битрейт : 2753 Кбит/сек
    Ширина : 1280 пикселей
    Высота : 720 пикселей
    Соотношение сторон : 16: 9
    Режим частоты кадров : Постоянный
    Частота кадров : 30, 000 кадров/сек
    Цветовое пространство : YUV
    Субдискретизация насыщенности : 4: 2: 0
    Битовая глубина : 8 бит
    Тип развёртки : Прогрессивная
    Бит/(Пиксели*Кадры) : 0.100
    Размер потока : 2, 60 Гбайт (91%)
    Default : Да
    Forced : Нет
    Аудио
    Идентификатор : 2
    Формат : AAC
    Формат/Информация : Advanced Audio Codec
    Профиль формата : LC
    Идентификатор кодека : A_AAC-2
    Продолжительность : 2 ч. 14 м.
    Битрейт : 256 Кбит/сек
    Каналы : 2 канала
    Расположение каналов : Front: L R
    Частота : 44, 1 КГц
    Частота кадров : 43, 066 кадра/сек (1024 SPF)
    Метод сжатия : С потерями
    Размер потока : 247 Мбайт (8%)
    Язык : Russian
    Default : Да
    Forced : Нет

    Скриншоты для ознакомления



    Все одноименные релизы в Клубе
    Время раздачи: 24/7 (около 1 месяца)


    Фигурное катание. Гран-при 2017-2018. 6-й Этап. Скейт Америка 2017. Лейк-Плэсид (США). Мужчины. Произвольная программа (25.11.2017) WEB-DL [H.264/720p-LQ]
    загрузка...
    Рейтинг →
     (голосов: 1, оценка 5/5, голосовать можно 1 раз )

    Другие торренты по теме:

  • Фигурное катание. Чемпионат России 2015. Екатеринбург (Россия). Показательные выступления (27.12.2015) (2015) HDTVRip [H.264 / 720p-LQ] скачать через торрент бесплатно
  • Фигурное катание. Чемпионат России 2015. Екатеринбург (Россия). Женщины. Произвольная программа (26.12.2015) HDTVRip [H.264 / 720p-LQ] скачать через торрент бесплатно
  • Фигурное Катание. Чемпионат России 2015. Женщины. Короткая программа. (25.12.2015) HDTVRip [H.264 / 720p-LQ] скачать через торрент бесплатно
  • Фигурное катание. Чемпионат Европы 2016. Женщины. Короткая программа. (27.01.2016) HDTVRip [H.264 / 720p-LQ]
  • Фигурное катание. Чемпионат Европы 2016. Танцы. Короткая программа. (28.01.2016) HDTVRip [H.264 / 720p-LQ]
  • Фигурное катание. Чемпионат Европы 2016. Мужчины. Короткая программа. (27.01.2016) HDTVRip [H.264 / 720p-LQ]
  • Фигурное катание. Чемпионат Европы 2016. Мужчины. Произвольная программа. (28.01.2016) HDTVRip [H.264 / 720p-LQ]
  • Фигурное катание. Чемпионат Европы 2016. Пары. Короткая программа. (29.01.2016) HDTVRip [H.264 / 720p-LQ]


    • Комментарии (0):

      Информация

      Информация

        Посетители, находящиеся в группе Гости, не могут оставлять комментарии в данной новости.

        ↓ Меню




        ↓ Опрос

        Вы добавили сайт в закладки?
        Да
        Нет


        Top 10 за месяц (Передачи)