.
Авторизация | Регистрация
Хочешь лучшие торренты? Добавь свой email!
Добавить

Торрент скачать бесплатно

» » Virgin Australia Supercars Championship. Сезон 2017. Coates Hire Newcastle 500. Гонка 2. Этап 14 (26.11.2017) HDTVRip [H.264 / 720p-LQ] [VO] торрент скачать бесплатно




    Virgin Australia Supercars Championship. Сезон 2017. Coates Hire Newcastle 500. Гонка 2. Этап 14 (26.11.2017) HDTVRip [H.264 / 720p-LQ] [VO] торрент скачать бесплатно

    Опубликовал: Админ | Дата: 1-12-2017, 05:00 | Просмотров: 0

    Жанр: Спорт

    Описание

    Австралийский чемпионат по шоссейно-кольцевым автогонкам среди легковых автомобилей сезон любимого сериалаа 2017 года - Этап 14
    Релиз от:
    Продолжительность: 02: 46: 14
    Качество видео: HDTVRip
    Перевод: Одноголосый закадровый, любительский
    Язык: Русский
    Видео: AVC/H.264, 1280х720, ~3283 Kbps
    Аудио: AAC, 2 ch, 152 Kbps

    General
    Complete name : E: Записи телевизионных шоуРазноеVirgin Australia Supercars Championship. Coates Hire Newcastle 500. Гонка 2, 26.11.2017 545TV, A21 Network.mp4
    Format : MPEG-4
    Format profile : Base Media
    Codec ID : isom (isom/iso2/avc1/mp41)
    File size : 4.00 GiB
    Duration : 2 h 46 min
    Overall bit rate mode : Variable
    Overall bit rate : 3 446 kb/s
    Writing application : Lavf54.63.104
    Video
    ID : 1
    Format : AVC
    Format/Info : Advanced Video Codec
    Format profile : Main@L3.1
    Format settings, CABAC : Yes
    Format settings, ReFrames : 1 frame
    Codec ID : avc1
    Codec ID/Info : Advanced Video Coding
    Duration : 2 h 46 min
    Bit rate : 3 283 kb/s
    Width : 1 280 pixels
    Height : 720 pixels
    Display aspect ratio : 16: 9
    Frame rate mode : Variable
    Frame rate : 29.970 (29970/1000) FPS
    Minimum frame rate : 0.166 FPS
    Maximum frame rate : 30.000 FPS
    Color space : YUV
    Chroma subsampling : 4: 2: 0
    Bit depth : 8 bits
    Scan type : Progressive
    Bits/(Pixel*Frame) : 0.119
    Stream size : 3.82 GiB (95%)
    Writing library : x264 core 129
    Encoding settings : cabac=1/ref=1/deblock=1: 0: 0/analyse=0x1: 0x131/me=dia/subme=2/psy=1/psy_rd=1.00: 0.00/mixed_ref=0/me_range=16/chroma_me=1/trellis=0/8x8dct=0/cqm=0/deadzone=21, 11/fast_pskip=1/chroma_qp_offset=0/threads=8/lookahead_threads=1/sliced_threads=0/nr=0/decimate=1/interlaced=0/bluray_compat=0/constrained_intra=0/bframes=0/weightp=2/keyint=250/keyint_min=25/scenecut=40/intra_refresh=0/rc_lookahead=40/rc=abr/mbtree=1/bitrate=3283/ratetol=1.0/qcomp=0.60/qpmin=10/qpmax=51/qpstep=4/ip_ratio=1.41/aq=1: 1.00
    Audio
    ID : 2
    Format : AAC
    Format/Info : Advanced Audio Codec
    Format profile : LC
    Codec ID : 40
    Duration : 2 h 46 min
    Duration_FirstFrame : 70 ms
    Bit rate mode : Variable
    Bit rate : 152 kb/s
    Maximum bit rate : 176 kb/s
    Channel(s) : 2 channels
    Channel positions : Front: L R
    Sampling rate : 44.1 kHz
    Frame rate : 43.066 FPS (1024 spf)
    Compression mode : Lossy
    Stream size : 181 MiB (4%)
    Default : Yes
    Alternate group : 1

    Скриншоты для ознакомления



    Все одноименные релизы в Клубе
    Время раздачи: с 10.00 до 0.00 (до появления первых 3-5 скачавших)


    Virgin Australia Supercars Championship. Сезон 2017. Coates Hire Newcastle 500. Гонка 2. Этап 14 (26.11.2017) HDTVRip [H.264/720p-LQ] [VO]
    загрузка...
    Рейтинг →
     (голосов: 1, оценка 4/5, голосовать можно 1 раз )

    Другие торренты по теме:

  • Virgin Australia Supercars Championship. Сезон 2017. Этап 1 - Clipsal 500 Adelaide. Гонка 1, 4.03.2017 HDTVRip [H.264 / 720p-LQ]
  • Virgin Australia Supercars Championship. Сезон 2017. Этап 1 - Clipsal 500 Adelaide. Гонка 2, 5.03.2017 HDTVRip [H.264 / 720p-LQ]
  • Virgin Australia Supercars Championship. Сезон 2017. Tasmania. Этап 2. Гонка 2 (9.04.2017) HDTVRip [H.264 / 720p-LQ] [VO]
  • Virgin Australia Supercars Championship. Сезон 2017. Tasmania. Этап 2. Гонка 1 (8.04.2017) HDTVRip [H.264 / 720p-LQ] [VO]
  • Virgin Australia Supercars Championship. Сезон 2017. Phillip Island 500. Этап 3. Гонка 2 (23.04.2017) HDTVRip [H.264 / 720p-LQ] [VO]
  • Virgin Australia Supercars Championship. Сезон 2017. Phillip Island 500. Этап 3. Гонка 1 (22.04.2017) HDTVRip [H.264 / 720p-LQ] [VO]
  • Virgin Australia Supercars Championship. Сезон 2017. Perth SuperSprint. Этап 4. Гонка 2 (07.05.2017) HDTVRip [H.264 / 720p-LQ] [VO]
  • Virgin Australia Supercars Championship. Сезон 2017. Perth SuperSprint. Этап 4. Гонка 1 (06.05.2017) HDTVRip [H.264 / 720p-LQ] [VO]


    • Комментарии (0):

      Информация

      Информация

        Посетители, находящиеся в группе Гости, не могут оставлять комментарии в данной новости.

        ↓ Меню




        ↓ Опрос

        Вы добавили сайт в закладки?
        Да
        Нет


        Top 10 за месяц (Передачи)