.
Авторизация | Регистрация
Хочешь лучшие торренты? Добавь свой email!
Добавить

Торрент скачать бесплатно

» » Лыжные гонки. Кубок мира 2017-2018. 1-й Этап. Рука (Финляндия). Мужчины. Гонка преследования 15 км. Свободный стиль (26.11.2017) HDTVRip [H.264 / 720p-LQ] [hand made 50fps] торрент скачать бесплатно




    Лыжные гонки. Кубок мира 2017-2018. 1-й Этап. Рука (Финляндия). Мужчины. Гонка преследования 15 км. Свободный стиль (26.11.2017) HDTVRip [H.264 / 720p-LQ] [hand made 50fps] торрент скачать бесплатно

    Опубликовал: Админ | Дата: 1-12-2017, 05:00 | Просмотров: 0

    Телекомпания: Матч! Арена HD
    Жанр: Спорт
    Комментаторы: Денис Панкратов, Тарас Тимошенко

    Описание
    26 ноября 2017 года, воскресенье. 14: 00 МСК
    Кубок Мира по лыжным гонкам 2017-2018.
    Этап 1, Рука (Финляндия):
    Мужчины. Гонка преследования 15 км. Свободный стиль
    Продолжительность: 00: 40: 48
    Качество видео: HDTVRip
    Язык озвучки: Русский
    Субтитры: отсутствуют
    Видео: AVC/H.264, 1280x720 (16: 9), ~3500 Kbps, 50 fps
    Аудио: AAC, 2 ch, 48 kHz, ~128 Kbps

    Общее
    Уникальный идентификатор : 241186552491989283575620789763015029754 (0xB572D72203F4A8B58FEC7F882231B3FA)
    Полное имя : F: SPORTЛыжные гонки(26.11.2017)_FIS Cross Country 1St. WC 17-18.Ruka(FIN). Mens 15 km Pursuit (F).mkv
    Формат : Matroska
    Версия формата : Version 4/Version 2
    Размер файла : 1, 03 Гбайт
    Продолжительность : 40 м. 47 с.
    Общий поток : 3624 Кбит/сек
    Дата кодирования : UTC 2017-11-30 12: 07: 19
    Программа кодирования : mkvmerge v18.0.0 (\'Apricity\') 32-bit
    Библиотека кодирования : libebml v1.3.5 + libmatroska v1.4.8
    Видео
    Идентификатор : 1
    Формат : AVC
    Формат/Информация : Advanced Video Codec
    Профиль формата : High@L3.2
    Настройки формата : CABAC/4 Ref Frames
    Параметр CABAC формата : Да
    Параметр RefFrames формата : 4 кадра
    Идентификатор кодека : V_MPEG4/ISO/AVC
    Продолжительность : 40 м. 47 с.
    Битрейт : 3500 Кбит/сек
    Ширина : 1280 пикселей
    Высота : 720 пикселей
    Соотношение сторон : 16: 9
    Режим частоты кадров : Постоянный
    Частота кадров : 50, 000 кадров/сек
    Цветовое пространство : YUV
    Субдискретизация насыщенности : 4: 2: 0
    Битовая глубина : 8 бит
    Тип развёртки : Прогрессивная
    Бит/(Пиксели*Кадры) : 0.076
    Размер потока : 1019 Мбайт (96%)
    Библиотека кодирования : x264 core 146 r2538 121396c
    Настройки программы : cabac=1/ref=3/deblock=1: 0: 0/analyse=0x3: 0x113/me=hex/subme=7/psy=1/psy_rd=1.00: 0.00/mixed_ref=1/me_range=16/chroma_me=1/trellis=1/8x8dct=1/cqm=0/deadzone=21, 11/fast_pskip=1/chroma_qp_offset=-2/threads=12/lookahead_threads=2/sliced_threads=0/nr=0/decimate=1/interlaced=0/bluray_compat=0/constrained_intra=0/bframes=3/b_pyramid=2/b_adapt=1/b_bias=0/direct=1/weightb=1/open_gop=0/weightp=2/keyint=250/keyint_min=25/scenecut=40/intra_refresh=0/rc_lookahead=40/rc=abr/mbtree=1/bitrate=3500/ratetol=1.0/qcomp=0.60/qpmin=0/qpmax=69/qpstep=4/ip_ratio=1.40/aq=1: 1.00
    Default : Да
    Forced : Нет
    Аудио
    Идентификатор : 2
    Формат : AAC
    Формат/Информация : Advanced Audio Codec
    Профиль формата : LC
    Идентификатор кодека : A_AAC-2
    Продолжительность : 40 м. 47 с.
    Битрейт : 128 Кбит/сек
    Каналы : 2 канала
    Расположение каналов : Front: L R
    Частота : 48, 0 КГц
    Частота кадров : 46, 875 кадров/сек (1024 SPF)
    Метод сжатия : С потерями
    Задержка видео : 9 мс.
    Размер потока : 37, 3 Мбайт (4%)
    Язык : Russian
    Default : Да
    Forced : Нет

    Скриншоты для ознакомления



    Все одноименные релизы в Клубе
    Время раздачи: 24/7 (около 1 месяца)


    Лыжные гонки. Кубок мира 2017-2018. 1-й Этап. Рука (Финляндия). Мужчины. Гонка преследования 15 км. Свободный стиль (26.11.2017) HDTVRip [H.264/720p-LQ] [hand made 50fps]
    загрузка...
    Рейтинг →
     (голосов: 1, оценка 5/5, голосовать можно 1 раз )

    Другие торренты по теме:

  • II Зимние юношеские Олимпийские игры 2016.Лиллехаммер(Норвегия).Лыжные гонки.Кросс-Спринт.Полуфиналы и Девушеки Финал (13.02.2016) HDTVRip [H.264 / 720p-LQ]
  • Лыжные гонки. Кубок мира 16-17. Рука (Финляндия). Спринт. Женщины и Мужчины. Финалы (26.11.2016) WEB-DL [H.264 / 720p-LQ]
  • Лыжные гонки. Кубок мира 16-17. Рука (Финляндия). Mужчины. Гонка 15 км, классический стиль (27.11.2016) HDTVRip [H.264 / 720p-LQ][hand made 50fps][RU,EN]
  • Лыжные гонки. Кубок мира 16-17. Рука (Финляндия). Женщины. Гонка 10 км, классический стиль (27.11.2016) HDTVRip [H.264 / 720p-LQ][hand made 50fps][RU,EN]
  • Лыжные гонки. Кубок мира 16-17. Рука (Финляндия). Женщины. Гонка 10 км, классический стиль (26.11.2016) WEB-DL [H.264 / 720p-LQ]
  • Лыжные гонки. Кубок мира 16-17. Рука (Финляндия). Спринт. Женщины и Мужчины. Финалы (26.11.2016) HDTVRip [H.264 / 720p-LQ][hand made 50fps][RU,EN]
  • Лыжные гонки. Кубок мира 2016-2017. Давос (Швейцария). 3-й Этап (2016) WEB-DL [H.264 / 720p-LQ]
  • Лыжные гонки.Кубок мира 2016-2017.Лиллехаммер (Норвегия).Мужчины.Гонка преследования 15 км, классический стиль (04.12.2016) HDTVRip [H.264 / 720p-LQ][hand made 50fps][RU,EN]


    • Комментарии (0):

      Информация

      Информация

        Посетители, находящиеся в группе Гости, не могут оставлять комментарии в данной новости.

        ↓ Меню




        ↓ Опрос

        Вы добавили сайт в закладки?
        Да
        Нет


        Top 10 за месяц (Передачи)