.
Авторизация | Регистрация
Хочешь лучшие торренты? Добавь свой email!
Добавить

Торрент скачать бесплатно

» » Лыжные гонки. Кубок мира 2017-2018. 1-й Этап. Рука (Финляндия). Женщины. Гонка преследования 10 км. Свободный стиль (26.11.2017) HDTVRip [H.264 / 720p-LQ] [hand made 50fps] торрент скачать бесплатно




    Лыжные гонки. Кубок мира 2017-2018. 1-й Этап. Рука (Финляндия). Женщины. Гонка преследования 10 км. Свободный стиль (26.11.2017) HDTVRip [H.264 / 720p-LQ] [hand made 50fps] торрент скачать бесплатно

    Опубликовал: Админ | Дата: 1-12-2017, 05:00 | Просмотров: 0

    Телекомпания: Матч ТВ HD
    Жанр: Спорт
    Комментаторы: Денис Панкратов, Тарас Тимошенко

    Описание
    26 ноября 2017 года, воскресенье. 11: 45 МСК
    Кубок Мира по лыжным гонкам 2017-2018.
    Этап 1, Рука (Финляндия):
    Женщины. Гонка преследования 10 км. Свободный стиль
    Продолжительность: 00: 29: 43
    Качество видео: HDTVRip
    Язык озвучки: Русский
    Субтитры: отсутствуют
    Видео: AVC/H.264, 1280x720 (16: 9), ~3500 Kbps, 50 fps
    Аудио: AC3, 2 ch, 192 Kbps

    Общее
    Уникальный идентификатор : 187569105601374879610042348785762481184 (0x8D1C7EE6FAA8CEAB9618079F6DB2B420)
    Полное имя : F: SPORTЛыжные гонки(26.11.2017)_FIS Cross Country 1St. WC 17-18.Ruka(FIN). Ladies 10 km Pursuit (F).mkv
    Формат : Matroska
    Версия формата : Version 4/Version 2
    Размер файла : 754 Мбайт
    Продолжительность : 29 м. 42 с.
    Общий поток : 3548 Кбит/сек
    Дата кодирования : UTC 2017-11-26 10: 23: 09
    Программа кодирования : mkvmerge v8.3.0 (\'Over the Horizon\') 64bit
    Библиотека кодирования : libebml v1.3.1 + libmatroska v1.4.2
    Видео
    Идентификатор : 1
    Формат : AVC
    Формат/Информация : Advanced Video Codec
    Профиль формата : High@L3.2
    Настройки формата : CABAC/4 Ref Frames
    Параметр CABAC формата : Да
    Параметр RefFrames формата : 4 кадра
    Идентификатор кодека : V_MPEG4/ISO/AVC
    Продолжительность : 29 м. 42 с.
    Битрейт : 3500 Кбит/сек
    Ширина : 1280 пикселей
    Высота : 720 пикселей
    Соотношение сторон : 16: 9
    Режим частоты кадров : Постоянный
    Частота кадров : 50, 000 кадров/сек
    Цветовое пространство : YUV
    Субдискретизация насыщенности : 4: 2: 0
    Битовая глубина : 8 бит
    Тип развёртки : Прогрессивная
    Бит/(Пиксели*Кадры) : 0.076
    Размер потока : 712 Мбайт (94%)
    Библиотека кодирования : x264 core 148 r2665M a01e339
    Настройки программы : cabac=1/ref=3/deblock=1: -2: -2/analyse=0x3: 0x133/me=hex/subme=7/psy=1/psy_rd=1.00: 0.20/mixed_ref=1/me_range=16/chroma_me=1/trellis=1/8x8dct=1/cqm=0/deadzone=21, 11/fast_pskip=1/chroma_qp_offset=-3/threads=5/lookahead_threads=1/sliced_threads=0/nr=0/decimate=1/interlaced=0/bluray_compat=0/constrained_intra=0/bframes=3/b_pyramid=2/b_adapt=2/b_bias=0/direct=3/weightb=1/open_gop=0/weightp=2/keyint=250/keyint_min=25/scenecut=40/intra_refresh=0/rc_lookahead=40/rc=cbr/mbtree=1/bitrate=3500/ratetol=1.0/qcomp=0.60/qpmin=0/qpmax=69/qpstep=4/vbv_maxrate=3500/vbv_bufsize=3500/nal_hrd=none/filler=0/ip_ratio=1.40/aq=1: 1.00
    Default : Нет
    Forced : Нет
    Цветовой диапазон : Limited
    Основные цвета : BT.709
    Характеристики трансфера : BT.709
    Коэффициенты матрицы : BT.709
    Аудио
    Идентификатор : 2
    Формат : AC-3
    Формат/Информация : Audio Coding 3
    Параметр Endianness формата : Big
    Идентификатор кодека : A_AC3
    Продолжительность : 29 м. 42 с.
    Вид битрейта : Постоянный
    Битрейт : 192 Кбит/сек
    Каналы : 2 канала
    Расположение каналов : Front: L R
    Частота : 44, 1 КГц
    Частота кадров : 28, 711 кадров/сек (1536 SPF)
    Битовая глубина : 16 бит
    Метод сжатия : С потерями
    Задержка видео : 29 мс.
    Размер потока : 40, 8 Мбайт (5%)
    Язык : Russian
    ServiceKind/String : Complete Main
    Default : Нет
    Forced : Нет

    Скриншоты для ознакомления



    Все одноименные релизы в Клубе
    Время раздачи: 24/7 (около 1 месяца)


    Лыжные гонки. Кубок мира 2017-2018. 1-й Этап. Рука (Финляндия). Женщины. Гонка преследования 10 км. Свободный стиль (26.11.2017) HDTVRip [H.264/720p-LQ] [hand made 50fps]
    загрузка...
    Рейтинг →
     (голосов: 1, оценка 3/5, голосовать можно 1 раз )

    Другие торренты по теме:

  • II Зимние юношеские Олимпийские игры 2016.Лиллехаммер(Норвегия).Лыжные гонки.Кросс-Спринт.Полуфиналы и Девушеки Финал (13.02.2016) HDTVRip [H.264 / 720p-LQ]
  • Лыжные гонки. Кубок мира 16-17. Рука (Финляндия). Спринт. Женщины и Мужчины. Финалы (26.11.2016) WEB-DL [H.264 / 720p-LQ]
  • Лыжные гонки. Кубок мира 16-17. Рука (Финляндия). Mужчины. Гонка 15 км, классический стиль (27.11.2016) HDTVRip [H.264 / 720p-LQ][hand made 50fps][RU,EN]
  • Лыжные гонки. Кубок мира 16-17. Рука (Финляндия). Женщины. Гонка 10 км, классический стиль (27.11.2016) HDTVRip [H.264 / 720p-LQ][hand made 50fps][RU,EN]
  • Лыжные гонки. Кубок мира 16-17. Рука (Финляндия). Женщины. Гонка 10 км, классический стиль (26.11.2016) WEB-DL [H.264 / 720p-LQ]
  • Лыжные гонки. Кубок мира 16-17. Рука (Финляндия). Спринт. Женщины и Мужчины. Финалы (26.11.2016) HDTVRip [H.264 / 720p-LQ][hand made 50fps][RU,EN]
  • Лыжные гонки. Кубок мира 2016-2017. Давос (Швейцария). 3-й Этап (2016) WEB-DL [H.264 / 720p-LQ]
  • Лыжные гонки.Кубок мира 2016-2017.Лиллехаммер (Норвегия).Мужчины.Гонка преследования 15 км, классический стиль (04.12.2016) HDTVRip [H.264 / 720p-LQ][hand made 50fps][RU,EN]


    • Комментарии (0):

      Информация

      Информация

        Посетители, находящиеся в группе Гости, не могут оставлять комментарии в данной новости.

        ↓ Меню




        ↓ Опрос

        Вы добавили сайт в закладки?
        Да
        Нет


        Top 10 за месяц (Передачи)