.
Авторизация | Регистрация
Хочешь лучшие торренты? Добавь свой email!
Добавить

Торрент скачать бесплатно

» » Биатлон. Кубок Мира 2017-2018. 1-й Этап. Эстерсунд (Швеция). Одиночная смешанная эстафета. Супермикст (26.11.2017) HDTVRip [H.264 / 720p-LQ] [hand made 50fps] торрент скачать бесплатно




    Биатлон. Кубок Мира 2017-2018. 1-й Этап. Эстерсунд (Швеция). Одиночная смешанная эстафета. Супермикст (26.11.2017) HDTVRip [H.264 / 720p-LQ] [hand made 50fps] торрент скачать бесплатно

    Опубликовал: Админ | Дата: 1-12-2017, 05:00 | Просмотров: 0

    Телекомпания: Матч ТВ HD
    Жанр: Спорт
    Комментатор: Дмитрий Губерниев

    Описание
    26 ноября 2017 года, воскресенье. 16: 15 МСК
    1-й этап Кубка Мира по биатлону 2017-2018. Эстерсунд (Швеция)
    Одиночная смешанная эстафета. Супермикст
    Продолжительность: 00: 45: 43
    Качество видео: HDTVRip
    Язык озвучки: Русский, Интершум
    Субтитры: отсутствуют
    Видео: AVC/H.264, 1280x720 (16: 9), ~3516 Kbps, 50 fps
    Аудио #1: AC3, 2 ch, 48 kHz, 128 Kbps | Русский
    Аудио #2: AC3, 2 ch, 48 kHz, 128 Kbps | Интершум

    Общее
    Уникальный идентификатор : 233166989141342325794574134488387130178 (0xAF6A5421F278B289B70458B564E59342)
    Полное имя : F: SPORTБиатлон1 Stage IBU BMW World Cup 17-18. Ostersund (SWE)(26.11.2017)_IBU 1st. WC 17-18.Ostersund (SWE).1. Single Mixed Relay.mkv
    Формат : Matroska
    Версия формата : Version 4/Version 2
    Размер файла : 1, 21 Гбайт
    Продолжительность : 45 м. 43 с.
    Общий поток : 3775 Кбит/сек
    Дата кодирования : UTC 2017-11-30 16: 09: 40
    Программа кодирования : mkvmerge v18.0.0 (\'Apricity\') 32-bit
    Библиотека кодирования : libebml v1.3.5 + libmatroska v1.4.8
    Видео
    Идентификатор : 1
    Формат : AVC
    Формат/Информация : Advanced Video Codec
    Профиль формата : High@L3.2
    Настройки формата : CABAC/4 Ref Frames
    Параметр CABAC формата : Да
    Параметр RefFrames формата : 4 кадра
    Идентификатор кодека : V_MPEG4/ISO/AVC
    Продолжительность : 45 м. 43 с.
    Битрейт : 3516 Кбит/сек
    Ширина : 1280 пикселей
    Высота : 720 пикселей
    Соотношение сторон : 16: 9
    Режим частоты кадров : Постоянный
    Частота кадров : 50, 000 кадров/сек
    Цветовое пространство : YUV
    Субдискретизация насыщенности : 4: 2: 0
    Битовая глубина : 8 бит
    Тип развёртки : Прогрессивная
    Бит/(Пиксели*Кадры) : 0.076
    Размер потока : 1, 12 Гбайт (93%)
    Default : Да
    Forced : Нет
    Аудио #1
    Идентификатор : 2
    Формат : AC-3
    Формат/Информация : Audio Coding 3
    Параметр Endianness формата : Big
    Идентификатор кодека : A_AC3
    Продолжительность : 45 м. 43 с.
    Вид битрейта : Постоянный
    Битрейт : 128 Кбит/сек
    Каналы : 2 канала
    Расположение каналов : Front: L R
    Частота : 48, 0 КГц
    Частота кадров : 31, 250 кадров/сек (1536 SPF)
    Битовая глубина : 16 бит
    Метод сжатия : С потерями
    Размер потока : 41, 9 Мбайт (3%)
    Язык : Russian
    ServiceKind/String : Complete Main
    Default : Да
    Forced : Нет
    Аудио #2
    Идентификатор : 3
    Формат : AC-3
    Формат/Информация : Audio Coding 3
    Идентификатор кодека : A_AC3
    Продолжительность : 45 м. 43 с.
    Битрейт : 128 Кбит/сек
    Каналы : 2 канала
    Частота : 48, 0 КГц
    Частота кадров : 31, 250 кадров/сек (1536 SPF)
    Метод сжатия : С потерями
    Размер потока : 41, 9 Мбайт (3%)
    Язык : Несколько языков
    Default : Нет
    Forced : Нет

    Скриншоты для ознакомления



    Все одноименные релизы в Клубе
    Время раздачи: 24/7 (около 1 месяца)


    Биатлон. Кубок Мира 2017-2018. 1-й Этап. Эстерсунд (Швеция). Одиночная смешанная эстафета. Супермикст (26.11.2017) HDTVRip [H.264/720p-LQ] [hand made 50fps]
    загрузка...
    Рейтинг →
     (голосов: 1, оценка 3/5, голосовать можно 1 раз )

    Другие торренты по теме:

  • Биатлон. Кубок Мира 2017-2018. 3-й Этап. Анси (Франция). Женщины. Спринт (14.12.2017) HDTVRip [H.264 / 720p-LQ] [hand made 50fps]
  • Биатлон. Кубок Мира 2014-15. 4-й этап. Оберхоф (Германия). Эстафета. Мужчины (2015) HDTV [H.264 / 1080i]
  • Биатлон. Кубок Мира 2015-2016. 1 Этап. Эстерсунд (Швеция) (29.11.2015-06.12.2015) HDTVRip [H.264 / 720p-LQ] [hand made 50fps] скачать через торрент бесплатно
  • Биатлон. Кубок Мира 2015-2016. 2 Этап Хохфильцен (Австрия). Спринт (11.12.2015) HDTVRip [H.264 / 720p-LQ] скачать через торрент бесплатно
  • Биатлон. Кубок Мира 2015-2016. 2 Этап. Хохфильцен(Австрия). Гонка преследования (12.12.2015) HDTVRip [H.264 / 720p-LQ] скачать через торрент бесплатно
  • Биатлон. Кубок Мира 2015-2016. 2 Этап. Хохфильцен(Австрия). Эстафета (13.12.2015) HDTVRip [H.264 / 720p-LQ] скачать через торрент бесплатно
  • Биатлон. Кубок Мира 2015-2016. 3 Этап.Поклюка(Словения). Спринт 10 км Мужчины (17.12.2015) HDTVRip[H.264 / 720p-LQ] скачать через торрент бесплатно
  • Биатлон. Кубок Мира 2015-2016. 3 Этап. Поклюка(Словения). Гонка преследования (19.12.2015) HDTVRip [H.264 / 720p-LQ] скачать через торрент бесплатно


    • Комментарии (0):

      Информация

      Информация

        Посетители, находящиеся в группе Гости, не могут оставлять комментарии в данной новости.

        ↓ Меню




        ↓ Опрос

        Вы добавили сайт в закладки?
        Да
        Нет


        Top 10 за месяц (Передачи)