.
Авторизация | Регистрация
Хочешь лучшие торренты? Добавь свой email!
Добавить

Торрент скачать бесплатно

» » Вечерний Ургант (2017.11.29) SATRip торрент скачать бесплатно




    Вечерний Ургант (2017.11.29) SATRip торрент скачать бесплатно

    Опубликовал: Админ | Дата: 1-12-2017, 05:00 | Просмотров: 0

    Телекомпания: Первый канал
    Жанр: ТВ-Шоу
    Ведущий: Иван Ургант
    Гости: Мария Шумакова, Павел Трубинер и Animal Джаz

    Описание

    Каждый вечер с понедельника по четверг за полчаса до полуночи Иван Ургант провожает этот день вместе с вами. С хорошим настроением, хорошей музыкой и теми людьми, которые ему интересны. Вечерний Ургант с понедельника по четверг
    Продолжительность: ~ 00: 30: 24
    Качество видео: SATRip
    Субтитры: Отсутствуют
    Реклама: Присутствуют вставки текстовой рекламы
    Видео: MPEG4, XviD, 720x464 (1.552), 25.000 fps, 1 800 Kbps (0.215 bit/pixel)
    Аудио: MP2, 48.0 KHz, 2 ch, 192 Kbps, CBR
    Код: выделить все
    Общее
    Полное имя : D:[1]Вечерний УргантВечерний Ургант (2017.11.29).avi
    Формат : AVI
    Формат/Информация : Audio Video Interleave
    Размер файла : 428 Мбайт
    Продолжительность : 30 м.
    Общий поток : 1970 Кбит/сек
    Программа кодирования : VirtualDubMod 1.5.10.3 |www.virtualdub-fr.org|| (build 2550/release)
    Библиотека кодирования : VirtualDubMod build 2550/release
    Видео
    Идентификатор : 0
    Формат : MPEG-4 Visual
    Профиль формата : Advanced Simple@L5
    Параметр BVOP формата : 2
    Параметр QPel формата : Нет
    Параметр GMC формата : Без точки перехода
    Параметр матрицы формата : Default (H.263)
    Идентификатор кодека : XVID
    Идентификатор кодека/Подсказка : XviD
    Продолжительность : 30 м.
    Битрейт : 1800 Кбит/сек
    Ширина : 720 пикселей
    Высота : 464 пикселя
    Соотношение сторон : 16:10
    Частота кадров : 25, 000 кадров/сек
    Цветовое пространство : YUV
    Субдискретизация насыщенности : 4:2:0
    Битовая глубина : 8 бит
    Тип развёртки : Прогрессивная
    Метод сжатия : С потерями
    Бит/(Пиксели*Кадры) : 0.215
    Размер потока : 391 Мбайт (91%)
    Библиотека кодирования : XviD 1.2.1 (UTC 2008-12-04)
    Аудио
    Идентификатор : 1
    Формат : MPEG Audio
    Версия формата : Version 1
    Профиль формата : Layer 2
    Идентификатор кодека : 50
    Продолжительность : 30 м.
    Вид битрейта : Постоянный
    Битрейт : 160 Кбит/сек
    Каналы : 2 канала
    Частота : 48, 0 КГц
    Метод сжатия : С потерями
    Размер потока : 34, 8 Мбайт (8%)
    Выравнивание : Соединение по промежуткам
    Продолжительность промежутка : 40 мс. (1, 00 видеокадр)
    Время предзагрузки промежутка : 504 мс.

    Скриншоты для ознакомления



    Все одноименные релизы в Клубе
    Время раздачи: 24/7. До первых 5 скачавших.


    Вечерний Ургант (2017.11.29) SATRip
    загрузка...
    Рейтинг →
     (голосов: 1, оценка 5/5, голосовать можно 1 раз )

    Другие торренты по теме:

  • Вечерний Ургант / Вечерний Мундиаль. Сезон №6. Выпуск №36 (2014.10.28) SATRip скачать через торрент бесплатно
  • Вечерний Ургант. Сезон №6. Выпуск №15 (2014.09.25) SATRip
  • Вечерний Ургант. Сезон №6. Выпуск №14 (2014.09.24) SATRip
  • Вечерний Ургант. Сезон №6. Выпуск №13 (2014.09.23) SATRip
  • Вечерний Ургант. Сезон №6. Выпуск №12 (2014.09.22) SATRip
  • Вечерний Ургант. Сезон №6. Выпуск №17 (2014.09.29) SATRip
  • Вечерний Ургант. Сезон №6. Выпуск №18 (2014.09.30) SATRip скачать через торрент бесплатно
  • Вечерний Ургант. Сезон №6. Выпуск №19 (2014.10.01) SATRip


    • Комментарии (0):

      Информация

      Информация

        Посетители, находящиеся в группе Гости, не могут оставлять комментарии в данной новости.

        ↓ Меню




        ↓ Опрос

        Вы добавили сайт в закладки?
        Да
        Нет


        Top 10 за месяц (Передачи)