.
Авторизация | Регистрация
Хочешь лучшие торренты? Добавь свой email!
Добавить

Торрент скачать бесплатно

» » Процесс. Кризис в Германии. Европа без рулевого (29.11.2017) HDTVRip [H.264 / 720p-LQ] торрент скачать бесплатно




    Процесс. Кризис в Германии. Европа без рулевого (29.11.2017) HDTVRip [H.264 / 720p-LQ] торрент скачать бесплатно

    Опубликовал: Админ | Дата: 1-12-2017, 05:00 | Просмотров: 0

    Телекомпания: Россия, ОАО ТРК ВС РФ ЗВЕЗДА
    Жанр: Телепередача, Политическое ток-шоу
    Режиссер: Артем Жаров
    Ведущая: Надана Фридрихсон
    Участники: Геворг Мирзаян, Дмитрий Бабич, Евгений Фёдоров, Алексей Пилько, Татьяна Иларионова, Ульрих Хайден, Игорь Шатров, Иржи Юст, Дмитрий Некрасов, Юрий Кофнер, Пётр Федосов

    Описание

    Процесс - еженедельное общественно-политическое ток-шоу. Оно посвящено обсуждению важнейших событий в России и мире, которые напрямую влияют на всех россиян. Главная цель дебатов в студии - определение того вектора, по которому должна идти Россия, чтобы обеспечить достойную и безопасную жизнь всем гражданам страны.
    В выпуске: Неужели Германия на пороге больших потрясений? В бундестаге по-прежнему нет коалиции, это значит, что нет постоянного правительства и по сути нет канцлера. Так как будет развивать немецкий кризис? Меркель потеряла свой консервативный электорат. В Германии назрел внутриполитический кризис. Кризис однополярного мира. Германия - оккупированное по итогам Второй мировой войны - государство. Если Германия станет на позицию свободной нации немцев - кирдык Европе. Отношение Америки, Запада, Германии к нам очень простое: пока мы здаём наши национальные интересы - мы хорошие, как только мы перестаём их здавать - мы плохие. Наш ответ - формула Суворова, дадим по зубам и помиримся, и подружимся!
    Продолжительность: 01: 11: 37
    Качество видео: HDTVRip
    Видео: AVC/H.264, 1280x720 (16: 9), ~2970 Kbps
    Аудио: AAC, 2 ch, 192 Kbps

    General
    Unique ID : 207194708070047016232408888466472265530 (0x9BE03FCF71373CC69BF660B77075673A)
    Complete name : D: FilmПроцесс. Кризис в Германии. Европа без рулевого.mkv
    Format : Matroska
    Format version : Version 4/Version 2
    File size : 1.58 GiB
    Duration : 1 h 11 min
    Overall bit rate mode : Variable
    Overall bit rate : 3 165 kb/s
    Encoded date : UTC 2017-11-30 08: 44: 21
    Writing application : mkvmerge v18.0.0 (\'Apricity\') 64-bit
    Writing library : libebml v1.3.5 + libmatroska v1.4.8
    Cover : Yes
    Attachments : cover.png
    Video
    ID : 1
    Format : AVC
    Format/Info : Advanced Video Codec
    Format profile : Main@L5
    Format settings : CABAC/4 Ref Frames
    Format settings, CABAC : Yes
    Format settings, RefFrames : 4 frames
    Codec ID : V_MPEG4/ISO/AVC
    Duration : 1 h 11 min
    Bit rate mode : Variable
    Bit rate : 2 972 kb/s
    Maximum bit rate : 3 686 kb/s
    Width : 1 280 pixels
    Height : 720 pixels
    Display aspect ratio : 16: 9
    Frame rate mode : Constant
    Frame rate : 30.000 FPS
    Standard : NTSC
    Color space : YUV
    Chroma subsampling : 4: 2: 0
    Bit depth : 8 bits
    Scan type : Progressive
    Bits/(Pixel*Frame) : 0.108
    Stream size : 1.49 GiB (94%)
    Language : Russian
    Default : Yes
    Forced : No
    Color range : Limited
    Audio
    ID : 2
    Format : AAC
    Format/Info : Advanced Audio Codec
    Format profile : LC
    Codec ID : A_AAC-2
    Duration : 1 h 11 min
    Bit rate : 192 kb/s
    Channel(s) : 2 channels
    Channel positions : Front: L R
    Sampling rate : 44.1 kHz
    Frame rate : 43.066 FPS (1024 SPF)
    Compression mode : Lossy
    Stream size : 97.2 MiB (6%)
    Language : Russian
    Default : Yes
    Forced : No

    Скриншоты для ознакомления






    Все одноименные релизы в Клубе
    Время раздачи: 07: 00-23: 00 (до появления первых 3-5 скачавших)


    Процесс. Кризис в Германии. Европа без рулевого (29.11.2017) HDTVRip [H.264/720p-LQ]
    загрузка...
    Рейтинг →
     (голосов: 1, оценка 5/5, голосовать можно 1 раз )

    Другие торренты по теме:

  • Процесс (2014) DVDRip
  • И. Р. Григулевич | Эрнесто Че Гевара и революционный процесс в Латинской Америке (1984) [DJVU]
  • Кай Метов - Воспитательный процесс (2008) [FLAC|image+.cue]<Pop>
  • Процесс (2013) WEB-DLRip [H.264 / 720p-LQ] (серии 1-4 из 4) скачать через торрент бесплатно
  • Процесс (2013) WEB-DLRip [H.264 / 1080p-LQ] (серии 1-4 из 4) скачать через торрент бесплатно
  • Нюрнбергский процесс / Judgment at Nuremberg (1961) BDRip скачать через торрент бесплатно
  • Процесс. Выпуск 1 (2015.09.19) SATRip скачать через торрент бесплатно
  • Ю. П. Зуев | Социально-исторический процесс и критика его богословской интерпретации (1986) [DJVU] скачать через торрент бесплатно


    • Комментарии (0):

      Информация

      Информация

        Посетители, находящиеся в группе Гости, не могут оставлять комментарии в данной новости.

        ↓ Меню




        ↓ Опрос

        Вы добавили сайт в закладки?
        Да
        Нет


        Top 10 за месяц (Передачи)