.
Авторизация | Регистрация
Хочешь лучшие торренты? Добавь свой email!
Добавить

Торрент скачать бесплатно

» » Фигурное катание. Гран-при 2017-2018. 6-й Этап. Скейт Америка 2017. Лейк-Плэсид (США). Мужчины. Короткая программа (24.11.2017) WEB-DLRip [H.264 / 720p-LQ] торрент скачать бесплатно




    Фигурное катание. Гран-при 2017-2018. 6-й Этап. Скейт Америка 2017. Лейк-Плэсид (США). Мужчины. Короткая программа (24.11.2017) WEB-DLRip [H.264 / 720p-LQ] торрент скачать бесплатно

    Опубликовал: Админ | Дата: 30-11-2017, 05:00 | Просмотров: 0

    Телекомпания: TeleSport HD
    Жанр: Спорт
    Комментаторы: Денис Алхазов, Юлия Липницкая

    Описание
    25 ноября 2017 года, суббота. 03: 54 МСК
    Серия Гран-при по фигурному катанию сезон любимого сериалаа 2017-2018.
    Skate America 2017 — 6-й Этап Гран-при. Лейк-Плэсид (США)
    Мужчины. Короткая программа.
    Арена: Херб Брукс Арена (Лейк-Плэсид, США)
    Продолжительность: 01: 37: 54
    Качество видео: WEB-DLRip
    Язык озвучки: Русский
    Субтитры: отсутствуют
    Видео: AVC/H.264, 1280x720 (16: 9), ~3638 Kbps, 30 fps
    Аудио: AAC, 2 ch, 48 kHz, ~198 Kbps

    Общее
    Уникальный идентификатор : 251918358672738085539620544102978417799 (0xBD85B6076E0CD24BA2358193E629F487)
    Полное имя : F: SPORTФигурное катание6. ISU Grand Prix. Skate America 2017(24.11.2017)_ISU 6st.GP.Skate America 2017.Lake Placid(USA).2. Men SP.mkv
    Формат : Matroska
    Версия формата : Version 4/Version 2
    Размер файла : 2, 61 Гбайт
    Продолжительность : 1 ч. 37 м.
    Общий поток : 3813 Кбит/сек
    Дата кодирования : UTC 2017-11-27 14: 46: 59
    Программа кодирования : mkvmerge v18.0.0 (\'Apricity\') 32-bit
    Библиотека кодирования : libebml v1.3.5 + libmatroska v1.4.8
    Видео
    Идентификатор : 1
    Формат : AVC
    Формат/Информация : Advanced Video Codec
    Профиль формата : High@L4
    Настройки формата : CABAC/4 Ref Frames
    Параметр CABAC формата : Да
    Параметр RefFrames формата : 4 кадра
    Идентификатор кодека : V_MPEG4/ISO/AVC
    Продолжительность : 1 ч. 37 м.
    Битрейт : 3638 Кбит/сек
    Ширина : 1280 пикселей
    Высота : 720 пикселей
    Соотношение сторон : 16: 9
    Режим частоты кадров : Постоянный
    Частота кадров : 30, 000 кадров/сек
    Цветовое пространство : YUV
    Субдискретизация насыщенности : 4: 2: 0
    Битовая глубина : 8 бит
    Тип развёртки : Прогрессивная
    Бит/(Пиксели*Кадры) : 0.132
    Размер потока : 2, 47 Гбайт (95%)
    Библиотека кодирования : x264 core 148 r2643 5c65704
    Настройки программы : cabac=1/ref=4/deblock=1: 0: 0/analyse=0x3: 0x113/me=umh/subme=7/psy=1/psy_rd=1.00: 0.00/mixed_ref=1/me_range=16/chroma_me=1/trellis=2/8x8dct=1/cqm=0/deadzone=21, 11/fast_pskip=1/chroma_qp_offset=-2/threads=6/lookahead_threads=1/sliced_threads=0/nr=0/decimate=1/interlaced=0/bluray_compat=0/constrained_intra=0/bframes=3/b_pyramid=2/b_adapt=1/b_bias=0/direct=1/weightb=1/open_gop=0/weightp=2/keyint=250/keyint_min=25/scenecut=40/intra_refresh=0/rc_lookahead=40/rc=abr/mbtree=1/bitrate=3638/ratetol=1.0/qcomp=0.60/qpmin=0/qpmax=69/qpstep=4/ip_ratio=1.41/aq=1: 1.00
    Default : Да
    Forced : Нет
    Аудио
    Идентификатор : 2
    Формат : AAC
    Формат/Информация : Advanced Audio Codec
    Профиль формата : LC
    Идентификатор кодека : A_AAC-2
    Продолжительность : 1 ч. 37 м.
    Битрейт : 198 Кбит/сек
    Каналы : 2 канала
    Расположение каналов : Front: L R
    Частота : 48, 0 КГц
    Частота кадров : 46, 875 кадров/сек (1024 SPF)
    Метод сжатия : С потерями
    Размер потока : 139 Мбайт (5%)
    Язык : Russian
    Default : Да
    Forced : Нет

    Скриншоты для ознакомления



    Все одноименные релизы в Клубе
    Время раздачи: 24/7 (около 1 месяца)


    Фигурное катание. Гран-при 2017-2018. 6-й Этап. Скейт Америка 2017. Лейк-Плэсид (США). Мужчины. Короткая программа (24.11.2017) WEB-DLRip [H.264/720p-LQ]
    загрузка...
    Рейтинг →
     (голосов: 1, оценка 4/5, голосовать можно 1 раз )

    Другие торренты по теме:

  • Фигурное катание. Гран-при 2017-2018. Финал. Нагоя (Япония). 3 День (09.12.2017) HDTV [H.264 / 1080i-LQ]
  • Фигурное катание. Гран-при 2017-2018. Финал. Нагоя (Япония). 2 День (08.12.2017) HDTV [H.264 / 1080i-LQ]
  • Фигурное катание. Гран-при 2017-2018. Финал. Нагоя (Япония). 1 День (07.12.2017) HDTV [H.264 / 1080i-LQ]
  • Фигурное катание. Чемпионат России 2015. Екатеринбург (Россия). Показательные выступления (27.12.2015) (2015) HDTVRip [H.264 / 720p-LQ] скачать через торрент бесплатно
  • Фигурное катание. Чемпионат России 2015. Екатеринбург (Россия). Женщины. Произвольная программа (26.12.2015) HDTVRip [H.264 / 720p-LQ] скачать через торрент бесплатно
  • Фигурное Катание. Чемпионат России 2015. Женщины. Короткая программа. (25.12.2015) HDTVRip [H.264 / 720p-LQ] скачать через торрент бесплатно
  • Фигурное катание. Чемпионат Европы 2016. Женщины. Короткая программа. (27.01.2016) HDTVRip [H.264 / 720p-LQ]
  • Фигурное катание. Чемпионат Европы 2016. Танцы. Короткая программа. (28.01.2016) HDTVRip [H.264 / 720p-LQ]


    • Комментарии (0):

      Информация

      Информация

        Посетители, находящиеся в группе Гости, не могут оставлять комментарии в данной новости.

        ↓ Меню




        ↓ Опрос

        Вы добавили сайт в закладки?
        Да
        Нет


        Top 10 за месяц (Передачи)