.
Авторизация | Регистрация
Хочешь лучшие торренты? Добавь свой email!
Добавить

Торрент скачать бесплатно

» » Лыжные гонки. Кубок мира 2017-2018. 1-й Этап. Рука (Финляндия). Женщины. Индивидуальная гонка 10 км. Классический стиль (25.11.2017) HDTVRip [H.264 / 720p-LQ] [hand made 50fps] торрент скачать бесплатно




    Лыжные гонки. Кубок мира 2017-2018. 1-й Этап. Рука (Финляндия). Женщины. Индивидуальная гонка 10 км. Классический стиль (25.11.2017) HDTVRip [H.264 / 720p-LQ] [hand made 50fps] торрент скачать бесплатно

    Опубликовал: Админ | Дата: 30-11-2017, 05:00 | Просмотров: 0

    Телекомпания: Матч ТВ HD
    Жанр: Спорт
    Комментаторы: Денис Панкратов, Тарас Тимошенко

    Описание
    25 ноября 2017 года, суббота. 12: 45 МСК
    Кубок Мира по лыжным гонкам 2017-2018. Этап 1, Рука (Финляндия):
    Женщины. Индивидуальная гонка 10 км. Классический стиль
    Продолжительность: 01: 02: 57
    Качество видео: HDTVRip
    Язык озвучки: Русский
    Субтитры: отсутствуют
    Видео: AVC/H.264, 1280x720 (16: 9), ~4400 Kbps, 50 fps
    Аудио: AC3, 2 ch, 48 kHz, 128 Kbps

    Общее
    Уникальный идентификатор : 230232376871013739686933324952663292498 (0xAD352493ACA8AA93AB1B9E7E3258FA52)
    Полное имя : F: SPORTЛыжные гонки(25.11.2017)_FIS Cross Country 1St. WC 17-18.Ruka(FIN). Ladies 10 km (C).mkv
    Формат : Matroska
    Версия формата : Version 2
    Размер файла : 1, 98 Гбайт
    Продолжительность : 1 ч. 2 м.
    Общий поток : 4508 Кбит/сек
    Дата кодирования : UTC 2017-11-25 12: 17: 10
    Программа кодирования : mkvmerge v7.8.0 (\'River Man\') 32bit built on Apr 3 2015 12: 11: 22
    Библиотека кодирования : libebml v1.3.1 + libmatroska v1.4.2
    Видео
    Идентификатор : 1
    Формат : AVC
    Формат/Информация : Advanced Video Codec
    Профиль формата : High@L3.2
    Настройки формата : CABAC/4 Ref Frames
    Параметр CABAC формата : Да
    Параметр RefFrames формата : 4 кадра
    Идентификатор кодека : V_MPEG4/ISO/AVC
    Продолжительность : 1 ч. 2 м.
    Битрейт : 4400 Кбит/сек
    Ширина : 1280 пикселей
    Высота : 720 пикселей
    Соотношение сторон : 16: 9
    Режим частоты кадров : Постоянный
    Частота кадров : 50, 000 кадров/сек
    Цветовое пространство : YUV
    Субдискретизация насыщенности : 4: 2: 0
    Битовая глубина : 8 бит
    Тип развёртки : Прогрессивная
    Бит/(Пиксели*Кадры) : 0.095
    Размер потока : 1, 89 Гбайт (95%)
    Библиотека кодирования : x264 core 146 r2538 121396c
    Настройки программы : cabac=1/ref=3/deblock=1: 0: 0/analyse=0x3: 0x113/me=hex/subme=7/psy=1/psy_rd=1.00: 0.00/mixed_ref=1/me_range=16/chroma_me=1/trellis=1/8x8dct=1/cqm=0/deadzone=21, 11/fast_pskip=1/chroma_qp_offset=-2/threads=12/lookahead_threads=2/sliced_threads=0/nr=0/decimate=1/interlaced=0/bluray_compat=0/constrained_intra=0/bframes=3/b_pyramid=2/b_adapt=1/b_bias=0/direct=1/weightb=1/open_gop=0/weightp=2/keyint=250/keyint_min=25/scenecut=40/intra_refresh=0/rc_lookahead=40/rc=abr/mbtree=1/bitrate=4400/ratetol=1.0/qcomp=0.60/qpmin=0/qpmax=69/qpstep=4/ip_ratio=1.40/aq=1: 1.00
    Default : Да
    Forced : Нет
    Аудио
    Идентификатор : 2
    Формат : AC-3
    Формат/Информация : Audio Coding 3
    Параметр Endianness формата : Big
    Идентификатор кодека : A_AC3
    Продолжительность : 1 ч. 2 м.
    Вид битрейта : Постоянный
    Битрейт : 128 Кбит/сек
    Каналы : 2 канала
    Расположение каналов : Front: L R
    Частота : 48, 0 КГц
    Частота кадров : 31, 250 кадров/сек (1536 SPF)
    Битовая глубина : 16 бит
    Метод сжатия : С потерями
    Размер потока : 57, 6 Мбайт (3%)
    ServiceKind/String : Complete Main
    Default : Да
    Forced : Нет

    Скриншоты для ознакомления



    Все одноименные релизы в Клубе
    Время раздачи: 24/7 (около 1 месяца)


    Лыжные гонки. Кубок мира 2017-2018. 1-й Этап. Рука (Финляндия). Женщины. Индивидуальная гонка 10 км. Классический стиль (25.11.2017) HDTVRip [H.264/720p-LQ] [hand made 50fps]
    загрузка...
    Рейтинг →
     (голосов: 1, оценка 4/5, голосовать можно 1 раз )

    Другие торренты по теме:

  • Лыжные гонки. Кубок мира 2017-2018. 3-й Этап. Давос (Швейцария). Спринт. Свободный стиль. Финалы (09.12.2017) IPTV [H.264 / 1080p-LQ]
  • Лыжные гонки. Кубок мира 2017-2018. 3-й Этап. Давос (Швейцария). Мужчины. Индивидуальная гонка 15 км. Свободный стиль (10.12.2017) IPTV [H.264 / 1080p-LQ]
  • Лыжные гонки. Кубок мира 2017-2018. 3-й Этап. Давос (Швейцария). Женщины. Индивидуальная гонка 10 км. Свободный стиль (10.12.2017) IPTV [H.264 / 1080p-LQ]
  • II Зимние юношеские Олимпийские игры 2016.Лиллехаммер(Норвегия).Лыжные гонки.Кросс-Спринт.Полуфиналы и Девушеки Финал (13.02.2016) HDTVRip [H.264 / 720p-LQ]
  • Лыжные гонки. Кубок мира 16-17. Рука (Финляндия). Спринт. Женщины и Мужчины. Финалы (26.11.2016) WEB-DL [H.264 / 720p-LQ]
  • Лыжные гонки. Кубок мира 16-17. Рука (Финляндия). Mужчины. Гонка 15 км, классический стиль (27.11.2016) HDTVRip [H.264 / 720p-LQ][hand made 50fps][RU,EN]
  • Лыжные гонки. Кубок мира 16-17. Рука (Финляндия). Женщины. Гонка 10 км, классический стиль (27.11.2016) HDTVRip [H.264 / 720p-LQ][hand made 50fps][RU,EN]
  • Лыжные гонки. Кубок мира 16-17. Рука (Финляндия). Женщины. Гонка 10 км, классический стиль (26.11.2016) WEB-DL [H.264 / 720p-LQ]


    • Комментарии (0):

      Информация

      Информация

        Посетители, находящиеся в группе Гости, не могут оставлять комментарии в данной новости.

        ↓ Меню




        ↓ Опрос

        Вы добавили сайт в закладки?
        Да
        Нет


        Top 10 за месяц (Передачи)