.
Авторизация | Регистрация
Хочешь лучшие торренты? Добавь свой email!
Добавить

Торрент скачать бесплатно

» » Cкелетон. Кубок мира 2017-2018. 3-й Этап. Уистлер (Канада). Мужчины (25.11.2017) WEB-DL [H.264 / 720p-LQ] [EN] торрент скачать бесплатно




    Cкелетон. Кубок мира 2017-2018. 3-й Этап. Уистлер (Канада). Мужчины (25.11.2017) WEB-DL [H.264 / 720p-LQ] [EN] торрент скачать бесплатно

    Опубликовал: Админ | Дата: 30-11-2017, 05:00 | Просмотров: 0

    Телекомпания: IBSF TV
    Жанр: Спорт

    Описание
    25 ноября 2017 года, суббота. 21: 00 МСК
    Cкелетон. Кубок мира 2017-2018. 3-й Этап. Уистлер (Канада)
    Мужчины. 1-я и 2-я попытка
    Стадион: Уистлер Слидинг Центр (Уистлер, Канада)
    Продолжительность: 01: 57: 12
    Качество видео: WEB-DL
    Язык озвучки: Английский
    Субтитры: отсутствуют
    Видео: AVC/H.264, 1280x720 (16: 9), ~1305 Kbps
    Аудио: AAC, 2 ch, ~126 Kbps

    Общее
    Уникальный идентификатор : 215073782270484294236375078793087210358 (0xA1CDB42923A3B3A7B3B18A6360AED376)
    Полное имя : F: SPORTБобслей(25.11.2017)_IBSF 3st. WC 2017-2018.Whistler(CAN).1. Mens Skeleton(Full).mkv
    Формат : Matroska
    Версия формата : Version 4/Version 2
    Размер файла : 1, 17 Гбайт
    Продолжительность : 1 ч. 57 м.
    Общий поток : 1432 Кбит/сек
    Дата кодирования : UTC 2017-11-28 10: 00: 41
    Программа кодирования : mkvmerge v18.0.0 (\'Apricity\') 32-bit
    Библиотека кодирования : libebml v1.3.5 + libmatroska v1.4.8
    Видео
    Идентификатор : 1
    Формат : AVC
    Формат/Информация : Advanced Video Codec
    Профиль формата : Main@L3.1
    Настройки формата : CABAC/3 Ref Frames
    Параметр CABAC формата : Да
    Параметр RefFrames формата : 3 кадра
    Идентификатор кодека : V_MPEG4/ISO/AVC
    Продолжительность : 1 ч. 57 м.
    Битрейт : 1305 Кбит/сек
    Ширина : 1280 пикселей
    Высота : 720 пикселей
    Соотношение сторон : 16: 9
    Режим частоты кадров : Постоянный
    Частота кадров : 25, 000 кадров/сек
    Цветовое пространство : YUV
    Субдискретизация насыщенности : 4: 2: 0
    Битовая глубина : 8 бит
    Тип развёртки : Прогрессивная
    Бит/(Пиксели*Кадры) : 0.057
    Размер потока : 1, 07 Гбайт (91%)
    Default : Да
    Forced : Нет
    Цветовой диапазон : Limited
    Основные цвета : BT.709
    Характеристики трансфера : BT.709
    Коэффициенты матрицы : BT.709
    Аудио
    Идентификатор : 2
    Формат : AAC
    Формат/Информация : Advanced Audio Codec
    Профиль формата : LC
    Идентификатор кодека : A_AAC-2
    Продолжительность : 1 ч. 57 м.
    Битрейт : 126 Кбит/сек
    Каналы : 2 канала
    Расположение каналов : Front: L R
    Частота : 44, 1 КГц
    Частота кадров : 43, 066 кадра/сек (1024 SPF)
    Метод сжатия : С потерями
    Размер потока : 105 Мбайт (9%)
    Язык : English
    Default : Да
    Forced : Нет

    Скриншоты для ознакомления



    Все одноименные релизы в Клубе
    Время раздачи: 24/7 (Около 1 месяца)


    Cкелетон. Кубок мира 2017-2018. 3-й Этап. Уистлер (Канада). Мужчины (25.11.2017) WEB-DL [H.264/720p-LQ] [EN]
    загрузка...
    Рейтинг →
     (голосов: 1, оценка 3/5, голосовать можно 1 раз )

    Другие торренты по теме:

  • Cкелетон. Кубок мира 2017-2018. 4-й Этап. Винтерберг (Германия). Мужчины (08.12.2017) WEB-DL [H.264 / 720p-LQ]
  • Cкелетон. Кубок мира 2016-2017. 1-й Этап. Уистлер (Канадa). Мужчины. 1-я и 2-я попытка (03.12.2016) WEB-DL [H.264 / 720p-LQ]
  • Cкелетон. Кубок мира 2016-2017. 1-й Этап. Уистлер (Канадa). Женщины. 1-я и 2-я попытка (02.12.2016) WEB-DL [H.264 / 720p-LQ]
  • Cкелетон. Кубок мира 2016-2017. 7-й Этап. Иглс (Австрия). Мужчины (03.02.2017) IPTV [H.264 / 720p-LQ]
  • Cкелетон. Кубок мира 2016-2017. 7-й Этап. Иглс (Австрия). Женщины (03.02.2017) IPTV [H.264 / 720p-LQ]
  • Cкелетон. Кубок мира 2016-2017. 8-й Этап. Пхёнчхан (Корея). Женщины, Мужчины (17.03.2017) IPTV [H.264 / 720p-LQ]
  • Cкелетон. Кубок мира 2017-2018. 1-й Этап. Лейк-Плэсид (США). Женщины (09.11.2017) WEB-DL [H.264 / 1080p-LQ] [EN]
  • Cкелетон. Кубок мира 2017-2018. 1-й Этап. Лейк-Плэсид (США). Мужчины (10.11.2017) WEB-DL [H.264 / 1080p-LQ] [EN]


    • Комментарии (0):

      Информация

      Информация

        Посетители, находящиеся в группе Гости, не могут оставлять комментарии в данной новости.

        ↓ Меню




        ↓ Опрос

        Вы добавили сайт в закладки?
        Да
        Нет


        Top 10 за месяц (Передачи)