.
Авторизация | Регистрация
Хочешь лучшие торренты? Добавь свой email!
Добавить

Торрент скачать бесплатно

» » Однажды в России (2017.11.29) SATRip (сезон 6, выпуск 14) торрент скачать бесплатно




    Однажды в России (2017.11.29) SATRip (сезон 6, выпуск 14) торрент скачать бесплатно

    Опубликовал: Админ | Дата: 30-11-2017, 05:00 | Просмотров: 0

    Телекомпания: ТНТ
    Производство: Россия
    Жанр: Юмористическое тв-шоу
    В ролях: Азамат Мусагалиев, Игорь Ласточкин, Ирина Чеснокова, Тимур Тания, Ольга Картункова, Александр Пташенчук, Максим Киселёв, Денис Дорохов, Заур Байцаев, Давид Цаллаев и др.

    Описание

    Россия - богатейшая страна, в которой много нефти, газа и проблем. ТВ-Шоу на ТНТ Однажды в России не решает ни одной из них. Оно над ними смеется. Участники шоу разыгрывают скетчи на сцене перед зрителями. Их снимают камеры. Это шоу - реальное театральное действие, совмещенное с кинопроизводством.

    Возраст: 16+ (зрителям, достигшим 16 лет)
    Дата премьеры в РФ: 28 сентября 2014

    Продолжительность: 00: 42: 59
    Качество видео: SATRip
    Субтитры: Отсутствуют
    Реклама: Присутствуют вставки текстовой рекламы
    Видео: MPEG4, XviD, 720x400 (16: 9), 25.000 fps, 1 800 Kbps (0.250 bit/pixel)
    Аудио: MP3, 48.0 KHz, 2 ch, 128 Kbps, CBR
    Код: выделить все
    Общее
    Полное имя : D:[1]Однажды в РоссииОднажды в России. Сезон 6. Выпуск 14 (2017.11.29).avi
    Формат : AVI
    Формат/Информация : Audio Video Interleave
    Размер файла : 596 Мбайт
    Продолжительность : 42 м.
    Общий поток : 1937 Кбит/сек
    Программа кодирования : VirtualDubMod 1.5.10.3 |www.virtualdub-fr.org|| (build 2550/release)
    Библиотека кодирования : VirtualDubMod build 2550/release
    Видео
    Идентификатор : 0
    Формат : MPEG-4 Visual
    Профиль формата : Advanced Simple@L5
    Параметр BVOP формата : 2
    Параметр QPel формата : Нет
    Параметр GMC формата : Без точки перехода
    Параметр матрицы формата : Default (H.263)
    Идентификатор кодека : XVID
    Идентификатор кодека/Подсказка : XviD
    Продолжительность : 42 м.
    Битрейт : 1800 Кбит/сек
    Ширина : 720 пикселей
    Высота : 400 пикселей
    Соотношение сторон : 16:9
    Частота кадров : 25, 000 кадров/сек
    Цветовое пространство : YUV
    Субдискретизация насыщенности : 4:2:0
    Битовая глубина : 8 бит
    Тип развёртки : Прогрессивная
    Метод сжатия : С потерями
    Бит/(Пиксели*Кадры) : 0.250
    Размер потока : 553 Мбайт (93%)
    Библиотека кодирования : XviD 1.2.1 (UTC 2008-12-04)
    Аудио
    Идентификатор : 1
    Формат : MPEG Audio
    Версия формата : Version 1
    Профиль формата : Layer 3
    Режим : Joint stereo
    Идентификатор кодека : 55
    Идентификатор кодека/Подсказка : MP3
    Продолжительность : 42 м.
    Вид битрейта : Постоянный
    Битрейт : 128 Кбит/сек
    Каналы : 2 канала
    Частота : 48, 0 КГц
    Метод сжатия : С потерями
    Размер потока : 39, 4 Мбайт (7%)
    Выравнивание : Соединение по промежуткам
    Продолжительность промежутка : 40 мс. (1, 00 видеокадр)
    Время предзагрузки промежутка : 504 мс.
    Библиотека кодирования : LAME3.99r
    Настройки программы : -m j -V 4 -q 9 -lowpass 17 -b 128

    Скриншоты для ознакомления



    Все одноименные релизы в Клубе
    Время раздачи: 24/7. До первых 5 скачавших.


    Однажды в России (2017.11.29) SATRip (сезон 6, выпуск 14)
    загрузка...
    Рейтинг →
     (голосов: 1, оценка 4/5, голосовать можно 1 раз )

    Другие торренты по теме:

  • Однажды в России. Выпуск 1 (2014.09.28) SATRip
  • Однажды в России. Выпуск 2 (2014.10.05) SATRip скачать через торрент бесплатно
  • Однажды в России. Выпуск 2 (2014.10.05) WEB-DL [H.264 / 720p-LQ] [hand made 50fps] скачать через торрент бесплатно
  • Однажды в России. Выпуск 1 (2014.09.28) WEB-DL [H.264 / 720p-LQ] [hand made 50fps] скачать через торрент бесплатно
  • Однажды в России. Выпуск 3 (2014.10.12) WEB-DL [H.264 / 720p] [hand made 50fps]
  • Однажды в России. Выпуск 3 (2014.10.12) WEB-DLRip
  • Однажды в России. Выпуск 3 (2014.10.12) SATRip скачать через торрент бесплатно
  • Однажды в России. Выпуск 4 (2014.10.19) WEB-DLRip скачать через торрент бесплатно


    • Комментарии (0):

      Информация

      Информация

        Посетители, находящиеся в группе Гости, не могут оставлять комментарии в данной новости.

        ↓ Меню




        ↓ Опрос

        Вы добавили сайт в закладки?
        Да
        Нет


        Top 10 за месяц (Передачи)