.
Авторизация | Регистрация
Хочешь лучшие торренты? Добавь свой email!
Добавить

Торрент скачать бесплатно

» » Однажды в России (2017.11.29) WEB-DL [H.264 / 720p-LQ] (сезон 6, выпуск 14) торрент скачать бесплатно




    Однажды в России (2017.11.29) WEB-DL [H.264 / 720p-LQ] (сезон 6, выпуск 14) торрент скачать бесплатно

    Опубликовал: Админ | Дата: 30-11-2017, 05:00 | Просмотров: 0

    Телекомпания: ТНТ
    Производство: Россия
    Жанр: Юмористическое тв-шоу
    В ролях: Азамат Мусагалиев, Игорь Ласточкин, Ирина Чеснокова, Тимур Тания, Ольга Картункова, Александр Пташенчук, Максим Киселёв, Денис Дорохов, Заур Байцаев, Давид Цаллаев и др.

    Описание

    Шоу Однажды в России, как и многие проекты ТНТ, имеет оригинальный формат. Это будет реальный театр. То есть заранее написанный сценарий герой шоу Однажды в России постарается воплотить в повседневной жизни. А это совсем не так просто, как может показаться сначала, но зато очень смешно. Передача построена на чередовании скетчей. Создатели Однажды в России – Семен Слепаков и Слава Дусмухаметов, за плечами которых – продюсирование сериала Интерны, Наша RUSSIA, и других нашумевших фильмов и передач. В роли ведущего выступит Вадим Галыгин.
    Россия - богатейшая страна, в которой много нефти, газа и проблем. Новое шоу ТНТ Однажды в России не решает ни одной из них. Оно над ними смеется.

    Возраст: 16+ (зрителям, достигшим 16 лет)
    Дата премьеры в РФ: 28 сентября 2014

    Релиз от: svlesin
    Продолжительность: 00: 42: 55
    Качество видео: WEB-DL
    Субтитры: Отсутствуют
    Видео: AVC, 1280x720 (16: 9), 25.000 fps, 3 521 Kbps (0.153 bit/pixel)
    Аудио: AC-3, 44.1 KHz, 2 ch, 192 Kbps, CBR
    Код: выделить все
    Общее
    Уникальный идентификатор : 254566595246874956887163678447809458280 (0xBF83BE2C3F68B0B099B267500E0DF068)
    Полное имя : D:[1]Однажды в РоссииОднажды в России. Сезон 6. Выпуск 14 (2017.11.29)_720.mkv
    Формат : Matroska
    Версия формата : Version 4/Version 2
    Размер файла : 1, 14 Гбайт
    Продолжительность : 42 м.
    Общий поток : 3788 Кбит/сек
    Название фильма : Однажды в России. Сезон 6. Выпуск 14 (2017.11.29)_720_nnm-club.name
    Дата кодирования : UTC 2017-11-29 19:36:36
    Программа кодирования : mkvmerge v17.0.0 (\'Be Ur Friend\') 64-bit
    Библиотека кодирования : libebml v1.3.5 + libmatroska v1.4.8
    Attachements : nnm-club.name.png
    Видео
    Идентификатор : 1
    Формат : AVC
    Формат/Информация : Advanced Video Codec
    Профиль формата :High@L3.1
    Параметр CABAC формата : Да
    Параметр ReFrames формата : 1 кадр
    Параметр GOP формата : M=1, N=12
    Идентификатор кодека : V_MPEG4/ISO/AVC
    Продолжительность : 42 м.
    Битрейт : 3521 Кбит/сек
    Ширина : 1280 пикселей
    Высота : 720 пикселей
    Соотношение сторон : 16:9
    Режим частоты кадров : Постоянный
    Частота кадров : 25, 000 кадров/сек
    Стандарт вещания : Component
    Цветовое пространство : YUV
    Субдискретизация насыщенности : 4:2:0
    Битовая глубина : 8 бит
    Тип развёртки : Прогрессивная
    Бит/(Пиксели*Кадры) : 0.153
    Размер потока : 1, 06 Гбайт (93%)
    Язык : English
    Default : Да
    Forced : Нет
    Цветовой диапазон : Limited
    Аудио
    Идентификатор : 2
    Формат : AC-3
    Формат/Информация : Audio Coding 3
    Расширение режима : CM (complete main)
    Параметр Endianness формата : Big
    Идентификатор кодека : A_AC3
    Продолжительность : 42 м.
    Вид битрейта : Постоянный
    Битрейт : 192 Кбит/сек
    Каналы : 2 канала
    Расположение каналов : Front: L R
    Частота : 44, 1 КГц
    Битовая глубина : 16 бит
    Метод сжатия : С потерями
    Размер потока : 58, 9 Мбайт (5%)
    Default : Да
    Forced : Нет

    Скриншоты для ознакомления



    Все одноименные релизы в Клубе
    Время раздачи: 24/7. До первых 5 скачавших.


    Однажды в России (2017.11.29) WEB-DL [H.264/720p-LQ] (сезон 6, выпуск 14)
    загрузка...
    Рейтинг →
     (голосов: 1, оценка 3/5, голосовать можно 1 раз )

    Другие торренты по теме:

  • Однажды в России. Выпуск 1 (2014.09.28) SATRip
  • Однажды в России. Выпуск 2 (2014.10.05) SATRip скачать через торрент бесплатно
  • Однажды в России. Выпуск 2 (2014.10.05) WEB-DL [H.264 / 720p-LQ] [hand made 50fps] скачать через торрент бесплатно
  • Однажды в России. Выпуск 1 (2014.09.28) WEB-DL [H.264 / 720p-LQ] [hand made 50fps] скачать через торрент бесплатно
  • Однажды в России. Выпуск 3 (2014.10.12) WEB-DL [H.264 / 720p] [hand made 50fps]
  • Однажды в России. Выпуск 3 (2014.10.12) WEB-DLRip
  • Однажды в России. Выпуск 3 (2014.10.12) SATRip скачать через торрент бесплатно
  • Однажды в России. Выпуск 4 (2014.10.19) WEB-DLRip скачать через торрент бесплатно


    • Комментарии (0):

      Информация

      Информация

        Посетители, находящиеся в группе Гости, не могут оставлять комментарии в данной новости.

        ↓ Меню




        ↓ Опрос

        Вы добавили сайт в закладки?
        Да
        Нет


        Top 10 за месяц (Передачи)