.
Авторизация | Регистрация
Хочешь лучшие торренты? Добавь свой email!
Добавить

Торрент скачать бесплатно

» » Теория заговора. Снайперы Майдана: тайна, покрытая властью (28.11.2017) HDTVRip [H.264 / 720p-LQ] торрент скачать бесплатно




    Теория заговора. Снайперы Майдана: тайна, покрытая властью (28.11.2017) HDTVRip [H.264 / 720p-LQ] торрент скачать бесплатно

    Опубликовал: Админ | Дата: 30-11-2017, 05:00 | Просмотров: 0

    Телекомпания: Россия, ОАО ТРК ВС РФ ЗВЕЗДА
    Жанр: Телепередача

    Описание

    На Украине - очередной скандал! На этот раз он связан с расстрелом на Майдане в 2014 году Небесной сотни - украинских демонстрантов и силовиков. Итальянские журналисты снялифильм, в котором снайперы впервые открыто выступили перед камерами. Ими оказались граждане Грузии. Но почему сейчас, спустя почти 4 года после массовых убийств, появился грузинский след? Кому выгодно это расследование? И понесут ли наказание убийцы невинных украинцев?
    Продолжительность: 00: 19: 50
    Качество видео: HDTVRip
    Видео: AVC/H.264, 1280x720 (16: 9), ~6250 Kbps
    Аудио: AAC, 2 ch, 254 Kbps

    General
    Unique ID : 214283527410123087393521176328240442117 (0xA135819681D91C8196B4578642012B05)
    Complete name : D: FilmТеория заговора Снайперы майдана тайна покрытая властью.mkv
    Format : Matroska
    Format version : Version 4/Version 2
    File size : 924 MiB
    Duration : 19 min 50 s
    Overall bit rate mode : Variable
    Overall bit rate : 6 513 kb/s
    Encoded date : UTC 2017-11-28 20: 31: 05
    Writing application : mkvmerge v18.0.0 (\'Apricity\') 64-bit
    Writing library : libebml v1.3.5 + libmatroska v1.4.8
    Cover : Yes
    Attachments : cover.png
    Video
    ID : 1
    Format : AVC
    Format/Info : Advanced Video Codec
    Format profile : High@L5.1
    Format settings : CABAC/4 Ref Frames
    Format settings, CABAC : Yes
    Format settings, RefFrames : 4 frames
    Codec ID : V_MPEG4/ISO/AVC
    Duration : 19 min 50 s
    Bit rate mode : Variable
    Bit rate : 6 252 kb/s
    Maximum bit rate : 7 550 kb/s
    Width : 1 280 pixels
    Height : 720 pixels
    Display aspect ratio : 16: 9
    Frame rate mode : Constant
    Frame rate : 30.000 FPS
    Standard : NTSC
    Color space : YUV
    Chroma subsampling : 4: 2: 0
    Bit depth : 8 bits
    Scan type : Progressive
    Bits/(Pixel*Frame) : 0.226
    Stream size : 887 MiB (96%)
    Language : Russian
    Default : Yes
    Forced : No
    Color range : Limited
    Color primaries : BT.709
    Transfer characteristics : BT.709
    Matrix coefficients : BT.709
    Audio
    ID : 2
    Format : AAC
    Format/Info : Advanced Audio Codec
    Format profile : LC
    Codec ID : A_AAC-2
    Duration : 19 min 50 s
    Bit rate : 254 kb/s
    Channel(s) : 2 channels
    Channel positions : Front: L R
    Sampling rate : 44.1 kHz
    Frame rate : 43.066 FPS (1024 SPF)
    Compression mode : Lossy
    Stream size : 36.0 MiB (4%)
    Language : Russian
    Default : Yes
    Forced : No

    Скриншоты для ознакомления








    Все одноименные релизы в Клубе
    Время раздачи: 07: 00-23: 00 (до появления первых 3-5 скачавших)


    Теория заговора. Снайперы Майдана: тайна, покрытая властью (28.11.2017) HDTVRip [H.264/720p-LQ]
    загрузка...
    Рейтинг →
     (голосов: 1, оценка 3/5, голосовать можно 1 раз )

    Другие торренты по теме:

  • Теория заговора / Zulu (2013) BDRip [720р] [hand made 60fps]
  • Теория заговора / Zulu (2013) HDRip
  • Теория заговора (2014.11.02) SATRip скачать через торрент бесплатно
  • Теория заговора. Шарлатаны (2014.11.16) SATRip
  • Теория заговора. Торговцы водой (2014.11.23) SATRip
  • Теория заговора. Торговцы водой (2014.11.23) SATRip
  • Теория заговора. Сетевой маркетинг (2014.11.30) SATRip скачать через торрент бесплатно
  • Теория заговора. Пищевые концерны (2014.12.07) SATRip


    • Комментарии (0):

      Информация

      Информация

        Посетители, находящиеся в группе Гости, не могут оставлять комментарии в данной новости.

        ↓ Меню




        ↓ Опрос

        Вы добавили сайт в закладки?
        Да
        Нет


        Top 10 за месяц (Передачи)