.
Авторизация | Регистрация
Хочешь лучшие торренты? Добавь свой email!
Добавить

Торрент скачать бесплатно

» » Мужской разговор с Юрием Мильчинским и Натальей Поклонской (25.11.2017) WEBRip [H.264 / 1080p-LQ] торрент скачать бесплатно




    Мужской разговор с Юрием Мильчинским и Натальей Поклонской (25.11.2017) WEBRip [H.264 / 1080p-LQ] торрент скачать бесплатно

    Опубликовал: Админ | Дата: 30-11-2017, 05:00 | Просмотров: 0

    Телекомпания: Россия, 8 ТВ Восьмой канал
    Жанр: Телепередача

    Описание

    Телепроект Мужской разговор - программа о настоящих мужчинах. Уже несколько лет выходит на Восьмом канале. Гости передачи - видные военачальники, спортсмены, артисты и политики.
    Автор и ведущий программы Юрий Мильчинский - эксперт по боевым единоборствам, криминалист.
    Депутат Государственной Думы Наталья Поклонская стала первой женщиной-участницей программы. Самая молодая женщина-генерал, символ Крымской весны, входит в десятку самых привлекательных женщин России.
    Наталья подробно ответила на все вопросы, не избегая острых: С чем пришлось столкнуться этой хрупкой женщине? Кто ее друзья, и есть ли у нее враги? Как она справляется с ударами судьбы?
    Продолжительность: 00: 20: 00
    Качество видео: WEBRip
    Видео: AVC/H.264, 1920x1080 (16: 9), ~5000 Kbps
    Аудио: AAC, 2 ch, 160 Kbps

    General
    Unique ID : 172319652169986224465207187067659522576 (0x81A38ECCC55DDEA8853731446C8A9210)
    Complete name : D: FilmМужской разговор с Юрием Мильчинским и Натальей Поклонской.mkv
    Format : Matroska
    Format version : Version 4/Version 2
    File size : 740 MiB
    Duration : 20 min 0 s
    Overall bit rate : 5 175 kb/s
    Encoded date : UTC 2017-11-29 07: 10: 02
    Writing application : mkvmerge v18.0.0 (\'Apricity\') 64-bit
    Writing library : libebml v1.3.5 + libmatroska v1.4.8
    Cover : Yes
    Attachments : cover.png
    Video
    ID : 1
    Format : AVC
    Format/Info : Advanced Video Codec
    Format profile : High@L4
    Format settings : CABAC/1 Ref Frames
    Format settings, CABAC : Yes
    Format settings, RefFrames : 1 frame
    Format settings, GOP : M=1, N=50
    Codec ID : V_MPEG4/ISO/AVC
    Duration : 20 min 0 s
    Bit rate : 5 007 kb/s
    Width : 1 920 pixels
    Height : 1 080 pixels
    Display aspect ratio : 16: 9
    Frame rate mode : Constant
    Frame rate : 25.000 FPS
    Color space : YUV
    Chroma subsampling : 4: 2: 0
    Bit depth : 8 bits
    Scan type : Progressive
    Bits/(Pixel*Frame) : 0.097
    Stream size : 716 MiB (97%)
    Language : Russian
    Default : Yes
    Forced : No
    Audio
    ID : 2
    Format : AAC
    Format/Info : Advanced Audio Codec
    Format profile : LC
    Codec ID : A_AAC-2
    Duration : 20 min 0 s
    Bit rate : 160 kb/s
    Channel(s) : 2 channels
    Channel positions : Front: L R
    Sampling rate : 48.0 kHz
    Frame rate : 46.875 FPS (1024 SPF)
    Compression mode : Lossy
    Delay relative to video : -43 ms
    Stream size : 22.9 MiB (3%)
    Language : Russian
    Default : Yes
    Forced : No

    Скриншоты для ознакомления







    Все одноименные релизы в Клубе
    Время раздачи: 07: 00-23: 00 (до появления первых 3-5 скачавших)


    Мужской разговор с Юрием Мильчинским и Натальей Поклонской (25.11.2017) WEBRip [H.264/1080p-LQ]
    загрузка...
    Рейтинг →
     (голосов: 1, оценка 5/5, голосовать можно 1 раз )

    Другие торренты по теме:

  • Мужской разговор (1968) DVDRip [H.264] скачать через торрент бесплатно
  • Эфраим Севела | Мужской разговор в русской бане (2013) [MP3]


    • Комментарии (0):

      Информация

      Информация

        Посетители, находящиеся в группе Гости, не могут оставлять комментарии в данной новости.

        ↓ Меню




        ↓ Опрос

        Вы добавили сайт в закладки?
        Да
        Нет


        Top 10 за месяц (Передачи)