.
Авторизация | Регистрация
Хочешь лучшие торренты? Добавь свой email!
Добавить

Торрент скачать бесплатно

» » Девяностые. Чумак против Кашпировского (2017.11.29) IPTVRip торрент скачать бесплатно




    Девяностые. Чумак против Кашпировского (2017.11.29) IPTVRip торрент скачать бесплатно

    Опубликовал: Админ | Дата: 30-11-2017, 05:00 | Просмотров: 0

    Телекомпания: ТВЦ
    Жанр: Документальный

    Описание

    90-е – это документальный фильм-расследование. Публицистический цикл рассказывает о самых значимых явлениях в жизни общества того времени, о том, что помнит каждый зритель канала ТВ Центр: зарождение класса новых русских, приватизация, чеченские войны, конкурсы красоты, Аум Синрикё, Хопёр-Инвест, криминальные войны, заказные убийства, шоковая терапия, яркие герои народившегося шоу-бизнеса, самые громкие скандалы десятилетия… Это было очень интересное время!
    Каждая серия цикла – это частные истории на фоне значимых политических событий, объясняющие природу многих современных общественных проблем. В каждом выпуске использованы интервью участников тех или иных событий и других свидетелей эпохи, уникальные архивные кадры, постановочные съёмки и современная графика.
    Релиз от: Печаль
    Продолжительность: ~ 00: 40: 31
    Качество видео: IPTVRip
    Субтитры: Отсутствуют
    Видео: MPEG4, XviD, 720x400 (16: 9), 25.000 fps, 1 700 Kbps (0.236 bit/pixel)
    Аудио: AC-3, 48.0 KHz, 2 ch, 192 Kbps, CBR
    Код: выделить все
    Общее
    Полное имя : D:[1]ДевяностыеДевяностые. Чумак против Кашпировского (2017.11.29).avi
    Формат : AVI
    Формат/Информация : Audio Video Interleave
    Размер файла : 551 Мбайт
    Продолжительность : 40 м.
    Общий поток : 1901 Кбит/сек
    Программа кодирования : VirtualDubMod 1.5.10.3 |www.virtualdub-fr.org|| (build 2550/release)
    Библиотека кодирования : VirtualDubMod build 2550/release
    Видео
    Идентификатор : 0
    Формат : MPEG-4 Visual
    Профиль формата : Advanced Simple@L5
    Параметр BVOP формата : 2
    Параметр QPel формата : Нет
    Параметр GMC формата : Без точки перехода
    Параметр матрицы формата : Default (MPEG)
    Идентификатор кодека : XVID
    Идентификатор кодека/Подсказка : XviD
    Продолжительность : 40 м.
    Битрейт : 1700 Кбит/сек
    Ширина : 720 пикселей
    Высота : 400 пикселей
    Соотношение сторон : 16:9
    Частота кадров : 25, 000 кадров/сек
    Цветовое пространство : YUV
    Субдискретизация насыщенности : 4:2:0
    Битовая глубина : 8 бит
    Тип развёртки : Прогрессивная
    Метод сжатия : С потерями
    Бит/(Пиксели*Кадры) : 0.236
    Размер потока : 493 Мбайт (89%)
    Библиотека кодирования : XviD 73
    Аудио
    Идентификатор : 1
    Формат : AC-3
    Формат/Информация : Audio Coding 3
    Расширение режима : CM (complete main)
    Параметр Endianness формата : Big
    Идентификатор кодека : 2000
    Продолжительность : 40 м.
    Вид битрейта : Постоянный
    Битрейт : 192 Кбит/сек
    Каналы : 2 канала
    Расположение каналов : Front: L R
    Частота : 48, 0 КГц
    Битовая глубина : 16 бит
    Метод сжатия : С потерями
    Размер потока : 55, 7 Мбайт (10%)
    Выравнивание : Разделение по промежуткам
    Продолжительность промежутка : 40 мс. (1, 00 видеокадр)
    Время предзагрузки промежутка : 500 мс.


    Девяностые. Чумак против Кашпировского (2017.11.29) IPTVRip
    загрузка...
    Рейтинг →
     (голосов: 1, оценка 3/5, голосовать можно 1 раз )

    Другие торренты по теме:

  • Знать будущее. Жизнь после Ванги. История 8. Лихие девяностые (2014.11.13) SATRip скачать через торрент бесплатно
  • Девяностые / Чума (2015) WEBRip (серия 1-3 из 24) (обновляемая) скачать через торрент бесплатно
  • Чума / Девяностые (2015) HDTV [H.264 / 1080i-LQ] (серии 1-4 из 24) (обновляемая) скачать через торрент бесплатно
  • Чума / Девяностые (2015) SATRip [H.264] (серии 1-4 из 24) (обновляемая) скачать через торрент бесплатно
  • Чума / Девяностые (2015) HDTVRip (серии 1-2 из 24) (обновляемая) скачать через торрент бесплатно
  • Чума / Девяностые (2015) SATRip (серии 1-22 из 24) (обновляемая) скачать через торрент бесплатно
  • Чума (Девяностые) (2015) HDTVRip [H.264 / 720p-LQ] (серии 1-24 из 24) скачать через торрент бесплатно
  • Чума (Девяностые) (2015) HDTVRip [H.264] (серии 1-24 из 24) скачать через торрент бесплатно


    • Комментарии (0):

      Информация

      Информация

        Посетители, находящиеся в группе Гости, не могут оставлять комментарии в данной новости.

        ↓ Меню




        ↓ Опрос

        Вы добавили сайт в закладки?
        Да
        Нет


        Top 10 за месяц (Передачи)