.
Авторизация | Регистрация
Хочешь лучшие торренты? Добавь свой email!
Добавить

Торрент скачать бесплатно

» » Stand Up (2017.11.26) HDTV [H.264 / 1080i-LQ] (сезон 7, выпуск 9) торрент скачать бесплатно




    Stand Up (2017.11.26) HDTV [H.264 / 1080i-LQ] (сезон 7, выпуск 9) торрент скачать бесплатно

    Опубликовал: Админ | Дата: 29-11-2017, 05:00 | Просмотров: 0

    Телекомпания: ТНТ HD
    Жанр: Юмористическое шоу, Stand up comedy
    Ведущий: Руслан Белый

    Актеры
    Руслан Белый, Слава Комиссаренко, Юлия Ахмедова, Дмитрий Романов, Стас Старовойтов, Тимур Каргинов, Виктор Комаров, Александр Шаляпин

    Описание

    Новое юмористическое шоу в жанре стендап. Здесь люди рассказывают о своих проблемах. Слава богу, что они у нас есть!
    Продолжительность: ~ 00: 46: 38
    Качество видео: HDTV
    Субтитры: Отсутствуют
    Видео: AVC, 1920x1080 (16: 9), 25.000 fps, 5 891 Kbps (0.114 bit/pixel)
    Аудио: MP2, 48.0 KHz, 2 ch, 192 Kbps, CBR
    Код: выделить все
    Общее
    Идентификатор : 1 (0x1)
    Полное имя : D:[1]Stand UpStand Up (2017.11.26)_1080.ts
    Формат : MPEG-TS
    Размер файла : 2, 09 Гбайт
    Продолжительность : 46 м.
    Режим общего битрейта : Переменный
    Общий поток : 6401 Кбит/сек
    Видео
    Идентификатор : 207 (0xCF)
    Идентификатор меню : 2207 (0x89F)
    Формат : AVC
    Формат/Информация : Advanced Video Codec
    Профиль формата : High@L4
    Параметр CABAC формата : Да
    Параметр ReFrames формата : 4 кадра
    Идентификатор кодека : 27
    Продолжительность : 46 м.
    Битрейт : 5891 Кбит/сек
    Ширина : 1920 пикселей
    Высота : 1080 пикселей
    Соотношение сторон : 16:9
    Частота кадров : 25, 000 кадров/сек
    Стандарт вещания : Component
    Цветовое пространство : YUV
    Субдискретизация насыщенности : 4:2:0
    Битовая глубина : 8 бит
    Тип развёртки : Чересстрочная
    Порядок развёртки : Верхнее поле первое
    Бит/(Пиксели*Кадры) : 0.114
    Размер потока : 1, 92 Гбайт (92%)
    Цветовой диапазон : Limited
    Основные цвета : BT.709
    Характеристики трансфера : BT.709
    Коэффициенты матрицы : BT.709
    Аудио
    Идентификатор : 307 (0x133)
    Идентификатор меню : 2207 (0x89F)
    Формат : MPEG Audio
    Версия формата : Version 1
    Профиль формата : Layer 2
    Идентификатор кодека : 3
    Продолжительность : 46 м.
    Вид битрейта : Постоянный
    Битрейт : 192 Кбит/сек
    Каналы : 2 канала
    Частота : 48, 0 КГц
    Метод сжатия : С потерями
    Задержка видео : -80 мс.
    Размер потока : 64, 1 Мбайт (3%)
    Язык : Russian

    Скриншоты для ознакомления



    Все одноименные релизы в Клубе
    Время раздачи: 24/7. До первых 5 скачавших.


    Stand Up (2017.11.26) HDTV [H.264/1080i-LQ] (сезон 7, выпуск 9)
    загрузка...
    Рейтинг →
     (голосов: 1, оценка 3/5, голосовать можно 1 раз )

    Другие торренты по теме:

  • Stand Up (2017.03.05) HDTV [H.264 / 1080i-LQ] (сезон 6, выпуск 3)
  • Stand Up (2017.03.26) HDTV [H.264 / 1080i-LQ] (сезон 6, выпуск 6)
  • Stand Up (2017.04.02) HDTV [H.264 / 1080i-LQ] (сезон 6, выпуск 7)
  • Stand Up (2017.04.09) HDTV [H.264 / 1080i-LQ] (сезон 6, выпуск 8)
  • Stand Up (2017.04.16) HDTV [H.264 / 1080i-LQ] (сезон 6, выпуск 9)
  • Иван Абрамов. Stand Up для фортепиано с гитарой (2017.04.30) HDTV [H.264 / 1080i-LQ]
  • Stand Up (2017.09.17) HDTV [H.264 / 1080i-LQ] (сезон 7, выпуск 1)
  • Stand Up (2017.10.08) HDTV [H.264 / 1080i-LQ] (сезон 7, выпуск 4)


    • Комментарии (0):

      Информация

      Информация

        Посетители, находящиеся в группе Гости, не могут оставлять комментарии в данной новости.

        ↓ Меню




        ↓ Опрос

        Вы добавили сайт в закладки?
        Да
        Нет


        Top 10 за месяц (Передачи)