.
Авторизация | Регистрация
Хочешь лучшие торренты? Добавь свой email!
Добавить

Торрент скачать бесплатно

» » Импровизация / Камеди Клаб / Комеди Клаб / Comedy Club (2017.11.28) WEB-DL [H.264 / 720p-LQ] (сезон 3, выпуск 22) торрент скачать бесплатно




    Импровизация / Камеди Клаб / Комеди Клаб / Comedy Club (2017.11.28) WEB-DL [H.264 / 720p-LQ] (сезон 3, выпуск 22) торрент скачать бесплатно

    Опубликовал: Админ | Дата: 29-11-2017, 05:00 | Просмотров: 0

    Телекомпания: ТНТ
    Жанр: Юмор
    Ведущий: Павел Воля

    Описание

    Импровизация — это новое непредсказуемое комедийное шоу от Comedy Club Production. В нём нет сценария и всё, происходящее на сцене, придумывается участниками на ходу. Под управлением ведущего Павла Воли четыре комика и один звездный гость оказываются в самых странных ситуациях — и выбираются из них с юмором. Прежде, чем попасть на экран, четыре участника Импровизации (Арсений Попов, Дима Позов, Сергей Матвиенко и Антон Шастун) несколько лет совершенствовали этот формат на клубных вечеринках.
    Каждый выпуск шоу разбит на части, в которых действуют свои правила: например, в одной комики должны разговаривать только вопросами, в другой — ходят с завязанными глазами по комнате с мышеловками, в третьей — шутят с электрошокерами на руках, которые бьют их током. В каждом шоу к комикам присоединяется приглашенная звезда. Только в Импровизации можно заставить певицу Сати Казанову выслушивать, как комики дают интервью от её лица, Ольгу Бузову — подавать реплики, как суфлер, а Мигеля угадывать, кем он был в прошлой жизни. Импровизация — шоу для тех, кому надоел предсказуемый юмор и кто хочет посмотреть, каково комикам на сцене без сценария и заготовленных шуток.
    Комедия импровизации — весьма распространенный формат в Европе, в Америке. В каждом вузе, в каждой школе есть импровизационная команда. При этом это традиционный жанр, он уходит корнями в итальянский театр масок, — говорит креативный продюсер шоу Стас Шеминов. Импровизация — вершина комедийного спорта, уважаемый жанр, которым мечтаю заниматься многие комики, но который требует постоянной практики. Участники Импровизации посвятили этому жанру несколько лет — и стали настоящими мастерами.
    Релиз от: svlesin
    Продолжительность: ~ 00: 44: 10
    Качество видео: WEB-DL
    Субтитры: Отсутствуют
    Видео: AVC, 1280x720 (16: 9), 25.000 fps, 3 518 Kbps (0.153 bit/pixel)
    Аудио: AC-3, 44.1 KHz, 2 ch, 192 Kbps, CBR
    Код: выделить все
    Общее
    Уникальный идентификатор : 195405174512653789257758626814127040355 (0x9301AAED9D603B828F2D4570C8A4E763)
    Полное имя : D:[1]ИмпровизацияИмпровизация. Сезон 3. Выпуск 22 (2017.11.28)_720.mkv
    Формат : Matroska
    Версия формата : Version 4/Version 2
    Размер файла : 1, 17 Гбайт
    Продолжительность : 44 м.
    Общий поток : 3786 Кбит/сек
    Название фильма : Импровизация. Сезон 3. Выпуск 22 (2017.11.28)_720_nnm-club.name
    Дата кодирования : UTC 2017-11-28 19:29:36
    Программа кодирования : mkvmerge v17.0.0 (\'Be Ur Friend\') 64-bit
    Библиотека кодирования : libebml v1.3.5 + libmatroska v1.4.8
    Attachements : nnm-club.name.png
    DURATION : 00:44:10.001000000
    NUMBER_OF_FRAMES : 76084
    NUMBER_OF_BYTES : 63600012
    _STATISTICS_WRITING_APP : mkvmerge v17.0.0 (\'Be Ur Friend\') 64-bit
    _STATISTICS_WRITING_DATE_UTC : 2017-11-28 19:29:36
    _STATISTICS_TAGS : BPS DURATION NUMBER_OF_FRAMES NUMBER_OF_BYTES
    Видео
    Идентификатор : 1
    Формат : AVC
    Формат/Информация : Advanced Video Codec
    Профиль формата :High@L3.1
    Параметр CABAC формата : Да
    Параметр ReFrames формата : 1 кадр
    Параметр GOP формата : M=1, N=12
    Идентификатор кодека : V_MPEG4/ISO/AVC
    Продолжительность : 44 м.
    Битрейт : 3518 Кбит/сек
    Ширина : 1280 пикселей
    Высота : 720 пикселей
    Соотношение сторон : 16:9
    Режим частоты кадров : Постоянный
    Частота кадров : 25, 000 кадров/сек
    Стандарт вещания : Component
    Цветовое пространство : YUV
    Субдискретизация насыщенности : 4:2:0
    Битовая глубина : 8 бит
    Тип развёртки : Прогрессивная
    Бит/(Пиксели*Кадры) : 0.153
    Размер потока : 1, 09 Гбайт (93%)
    Язык : English
    Default : Да
    Forced : Нет
    Цветовой диапазон : Limited
    Аудио
    Идентификатор : 2
    Формат : AC-3
    Формат/Информация : Audio Coding 3
    Расширение режима : CM (complete main)
    Параметр Endianness формата : Big
    Идентификатор кодека : A_AC3
    Продолжительность : 44 м.
    Вид битрейта : Постоянный
    Битрейт : 192 Кбит/сек
    Каналы : 2 канала
    Расположение каналов : Front: L R
    Частота : 44, 1 КГц
    Битовая глубина : 16 бит
    Метод сжатия : С потерями
    Размер потока : 60, 7 Мбайт (5%)
    Default : Да
    Forced : Нет

    Скриншоты для ознакомления



    Все одноименные релизы в Клубе
    Время раздачи: 24/7. До первых 5 скачавших.


    Импровизация/Камеди Клаб/Комеди Клаб/Comedy Club (2017.11.28) WEB-DL [H.264/720p-LQ] (сезон 3, выпуск 22)
    загрузка...
    Рейтинг →
     (голосов: 1, оценка 4/5, голосовать можно 1 раз )

    Другие торренты по теме:

  • Импровизация / Камеди Клаб / Комеди Клаб / Comedy Club (05.02.2016) SATRip (выпуск 1)
  • Импровизация / Камеди Клаб / Комеди Клаб / Comedy Club (05.02.2016) WEB-DL [H.264 / 720-LQ] (выпуск 1)
  • Импровизация / Камеди Клаб / Комеди Клаб / Comedy Club (12.02.2016) SATRip (выпуск 2)
  • Импровизация / Камеди Клаб / Комеди Клаб / Comedy Club (12.02.2016) WEB-DL [H.264 / 720-LQ] (выпуск 2)
  • Импровизация / Камеди Клаб / Комеди Клаб / Comedy Club (20.02.2016) SATRip (выпуск 3)
  • Импровизация / Камеди Клаб / Комеди Клаб / Comedy Club (26.02.2016) WEB-DL [H.264 / 720-LQ] (выпуск 4)
  • Импровизация / Камеди Клаб / Комеди Клаб / Comedy Club (26.02.2016) SATRip (выпуск 4)
  • Импровизация / Камеди Клаб / Комеди Клаб / Comedy Club (04.03.2016) SATRip (выпуск 5)


    • Комментарии (0):

      Информация

      Информация

        Посетители, находящиеся в группе Гости, не могут оставлять комментарии в данной новости.

        ↓ Меню




        ↓ Опрос

        Вы добавили сайт в закладки?
        Да
        Нет


        Top 10 за месяц (Передачи)