.
Авторизация | Регистрация
Хочешь лучшие торренты? Добавь свой email!
Добавить

Торрент скачать бесплатно

» » Где логика (2017.11.27) WEB-DL [H.264 / 720p-LQ] (сезон 5, выпуск 16) торрент скачать бесплатно




    Где логика (2017.11.27) WEB-DL [H.264 / 720p-LQ] (сезон 5, выпуск 16) торрент скачать бесплатно

    Опубликовал: Админ | Дата: 29-11-2017, 05:00 | Просмотров: 0

    Телекомпания: ТНТ
    Жанр: ТВ-Шоу
    Ведущие: Азамат Мусагалиев

    Описание

    Звездные семейные пары, партнеры по съемочной площадке, просто хорошие друзья и знакомые будут вместе пытаться выстраивать логические связи между самыми, казалось бы, нелогичными событиями, предметами или фактами. Почему мы оставляем официантам на чай, но не оставляем врачам на бинты? Для чего нам мизинцы на ногах? Зачем мыть машину в ноябре? Почему существует сухое вино, но вы нигде не найдете мокрого? Правильного, однозначного ответа на эти вопросы попросту не существует. Поэтому решать, кто из пар был наиболее логичен в своих рассуждениях, будет ведущий шоу Азамат Мусагалиев. Его задача не только определить победителя, но и помочь паре выстроить логическую цепочку. Новую программу ТНТ невозможно подвести ни под один существующий формат. Это и викторина, и интеллектуальный конкурс, и даже в чем-то стендап-камеди. Но самая большая ценность нового проекта состоит в том, что играть в него могут не только непосредственные участники программы, но и зрители ТНТ у экранов телевизоров.
    Релиз от: svlesin
    Продолжительность: 00: 47: 53
    Качество видео: WEB-DL
    Субтитры: Отсутствуют
    Видео: AVC, 1280x720 (16: 9), 25.000 fps, 3 455 Kbps (0.150 bit/pixel)
    Аудио: AC-3, 44.1 KHz, 2 ch, 192 Kbps, CBR
    Код: выделить все
    Общее
    Уникальный идентификатор : 232380690344121427746980321523520350263 (0xAED2E49BDA19CE5ABD73C6ACC661A837)
    Полное имя : D:[1]Где логикаГде логика. Сезон 5. Выпуск 16 (2017.11.27)_720.mkv
    Формат : Matroska
    Версия формата : Version 4/Version 2
    Размер файла : 1, 24 Гбайт
    Продолжительность : 47 м.
    Общий поток : 3721 Кбит/сек
    Название фильма : Где логика. Сезон 5. Выпуск 16 (2017.11.27)_720_nnm-club.name
    Дата кодирования : UTC 2017-11-27 20:44:37
    Программа кодирования : mkvmerge v17.0.0 (\'Be Ur Friend\') 64-bit
    Библиотека кодирования : libebml v1.3.5 + libmatroska v1.4.8
    Attachements : nnm-club.name.png
    DURATION : 00:47:52.982000000
    NUMBER_OF_FRAMES : 82486
    NUMBER_OF_BYTES : 68951562
    _STATISTICS_WRITING_APP : mkvmerge v17.0.0 (\'Be Ur Friend\') 64-bit
    _STATISTICS_WRITING_DATE_UTC : 2017-11-27 20:44:37
    _STATISTICS_TAGS : BPS DURATION NUMBER_OF_FRAMES NUMBER_OF_BYTES
    Видео
    Идентификатор : 1
    Формат : AVC
    Формат/Информация : Advanced Video Codec
    Профиль формата :High@L3.1
    Параметр CABAC формата : Да
    Параметр ReFrames формата : 1 кадр
    Параметр GOP формата : M=1, N=12
    Идентификатор кодека : V_MPEG4/ISO/AVC
    Продолжительность : 47 м.
    Битрейт : 3455 Кбит/сек
    Ширина : 1280 пикселей
    Высота : 720 пикселей
    Соотношение сторон : 16:9
    Режим частоты кадров : Постоянный
    Частота кадров : 25, 000 кадров/сек
    Стандарт вещания : Component
    Цветовое пространство : YUV
    Субдискретизация насыщенности : 4:2:0
    Битовая глубина : 8 бит
    Тип развёртки : Прогрессивная
    Бит/(Пиксели*Кадры) : 0.150
    Размер потока : 1, 16 Гбайт (93%)
    Язык : English
    Default : Да
    Forced : Нет
    Цветовой диапазон : Limited
    Аудио
    Идентификатор : 2
    Формат : AC-3
    Формат/Информация : Audio Coding 3
    Расширение режима : CM (complete main)
    Параметр Endianness формата : Big
    Идентификатор кодека : A_AC3
    Продолжительность : 47 м.
    Вид битрейта : Постоянный
    Битрейт : 192 Кбит/сек
    Каналы : 2 канала
    Расположение каналов : Front: L R
    Частота : 44, 1 КГц
    Битовая глубина : 16 бит
    Метод сжатия : С потерями
    Размер потока : 65, 8 Мбайт (5%)
    Default : Да
    Forced : Нет

    Скриншоты для ознакомления



    Все одноименные релизы в Клубе
    Время раздачи: 24/7. До первых 5 скачавших.


    Где логика (2017.11.27) WEB-DL [H.264/720p-LQ] (сезон 5, выпуск 16)
    загрузка...
    Рейтинг →
     (голосов: 1, оценка 5/5, голосовать можно 1 раз )

    Другие торренты по теме:

  • Где логика Выпуск 1 (2015.11.29) WEB-DL [H.264 / 720p-LQ] скачать через торрент бесплатно
  • Где логика Выпуск 2 (2015.12.06) WEB-DL [H.264 / 720p-LQ] скачать через торрент бесплатно
  • Где логика Выпуск 3 (2015.12.13) WEB-DL [H.264 / 720p-LQ] скачать через торрент бесплатно
  • Где логика Выпуск 4 (2015.12.20) WEB-DL [H.264 / 720p-LQ] скачать через торрент бесплатно
  • Где логика Выпуск 5 (2015.12.27) WEB-DL [H.264 / 720p-LQ] скачать через торрент бесплатно
  • Где логика Выпуск 6 (2015.12.31) WEB-DL [H.264 / 720p-LQ] скачать через торрент бесплатно
  • Где логика Выпуск 7 (2016.03.06) WEB-DL [H.264 / 720p-LQ]
  • Где логика Выпуск 8 (2016.03.13) WEB-DL [H.264 / 720p-LQ]


    • Комментарии (0):

      Информация

      Информация

        Посетители, находящиеся в группе Гости, не могут оставлять комментарии в данной новости.

        ↓ Меню




        ↓ Опрос

        Вы добавили сайт в закладки?
        Да
        Нет


        Top 10 за месяц (Передачи)