.
Авторизация | Регистрация
Хочешь лучшие торренты? Добавь свой email!
Добавить

Торрент скачать бесплатно

» » Танцы (2017.11.25) HDTV [H.264 / 1080i] (сезон 4, выпуск 17) торрент скачать бесплатно




    Танцы (2017.11.25) HDTV [H.264 / 1080i] (сезон 4, выпуск 17) торрент скачать бесплатно

    Опубликовал: Админ | Дата: 29-11-2017, 05:00 | Просмотров: 0

    Телекомпания: ТНТ HD
    Жанр: Реалити-шоу, танцы, развлекательный, хореография
    Наставники: Татьяна Денисова, Сергей Шестепёров (Мигель) и Сергей Светлаков
    Ведущий: Ляйсан Утяшева

    Описание

    Танцы 4 сезон любимого сериала, в очередном сезон любимого сериалае любимого миллионами танцевального проекта нас ждет противостояние полов, потому что Егора Дружинина больше нет в числе членов жюри. Его место заняла знаменитый хореограф Татьяна Денисова. С появлением нового судьи будут связаны крупные изменения новых деталей проекта. В проекте окажутся хореографы Татьяны, которые станут трудиться в ее команде. Еще Татьяна Денисова добавит в критерии отбора участников новые фишки, в частности в испытания хореографией. Также у шоу будут полностью новые декорации и новая графика. Как будто это будет не очередной сезон любимого сериала, а новое шоу со сходным названием.

    Возраст: 16+ (зрителям, достигшим 16 лет)
    Релиз от: 25Kuzmich
    Продолжительность: 01: 33: 27
    Качество видео: HDTV
    Субтитры: Отсутствуют
    Видео: AVC, 1920x1080 (16: 9), 25.000 fps, 10.5 Mbps (0.202 bit/pixel)
    Аудио: MP2, 48.0 KHz, 2 ch, 192 Kbps, CBR
    Код: выделить все
    Общее
    Идентификатор : 1 (0x1)
    Полное имя : D:[1]ТанцыТанцы. Сезон 4. Выпуск 17 (2017.11.25)_1080.ts
    Формат : MPEG-TS
    Размер файла : 7, 33 Гбайт
    Продолжительность : 1 ч. 33 м.
    Режим общего битрейта : Переменный
    Общий поток : 11, 2 Мбит/сек
    Видео
    Идентификатор : 207 (0xCF)
    Идентификатор меню : 2207 (0x89F)
    Формат : AVC
    Формат/Информация : Advanced Video Codec
    Профиль формата : High@L4
    Параметр CABAC формата : Да
    Параметр ReFrames формата : 4 кадра
    Идентификатор кодека : 27
    Продолжительность : 1 ч. 33 м.
    Битрейт : 10, 5 Мбит/сек
    Ширина : 1920 пикселей
    Высота : 1080 пикселей
    Соотношение сторон : 16:9
    Частота кадров : 25, 000 кадров/сек
    Стандарт вещания : Component
    Цветовое пространство : YUV
    Субдискретизация насыщенности : 4:2:0
    Битовая глубина : 8 бит
    Тип развёртки : Чересстрочная
    Порядок развёртки : Верхнее поле первое
    Бит/(Пиксели*Кадры) : 0.202
    Размер потока : 6, 84 Гбайт (93%)
    Цветовой диапазон : Limited
    Основные цвета : BT.709
    Характеристики трансфера : BT.709
    Коэффициенты матрицы : BT.709
    Аудио
    Идентификатор : 307 (0x133)
    Идентификатор меню : 2207 (0x89F)
    Формат : MPEG Audio
    Версия формата : Version 1
    Профиль формата : Layer 2
    Идентификатор кодека : 3
    Продолжительность : 1 ч. 33 м.
    Вид битрейта : Постоянный
    Битрейт : 192 Кбит/сек
    Каналы : 2 канала
    Частота : 48, 0 КГц
    Метод сжатия : С потерями
    Задержка видео : -80 мс.
    Размер потока : 128 Мбайт (2%)
    Язык : Russian

    Скриншоты для ознакомления



    Все одноименные релизы в Клубе
    Время раздачи: 24/7. До первых 5 скачавших.


    Танцы (2017.11.25) HDTV [H.264/1080i] (сезон 4, выпуск 17)
    загрузка...
    Рейтинг →
     (голосов: 1, оценка 3/5, голосовать можно 1 раз )

    Другие торренты по теме:

  • Танцы (2017.08.19) HDTV [H.264 / 1080i] (сезон 4, выпуск 1)
  • Танцы (2017.08.26) HDTV [H.264 / 1080i] (сезон 4, выпуск 2)
  • Танцы (2017.09.02) HDTV [H.264 / 1080i] (сезон 4, выпуск 3)
  • Танцы (2017.09.09) HDTV [H.264 / 1080i] (сезон 4, выпуск 4)
  • Танцы (2017.09.16) HDTV [H.264 / 1080i] (сезон 4, выпуск 5)
  • Танцы (2017.09.23) HDTV [H.264 / 1080i] (сезон 4, выпуск 6)
  • Танцы (2017.09.30) HDTV [H.264 / 1080i] (сезон 4, выпуск 7)
  • Танцы (2017.10.07) HDTV [H.264 / 1080i] (сезон 4, выпуск 8)


    • Комментарии (0):

      Информация

      Информация

        Посетители, находящиеся в группе Гости, не могут оставлять комментарии в данной новости.

        ↓ Меню




        ↓ Опрос

        Вы добавили сайт в закладки?
        Да
        Нет


        Top 10 за месяц (Передачи)