.
Авторизация | Регистрация
Хочешь лучшие торренты? Добавь свой email!
Добавить

Торрент скачать бесплатно

» » Орел и решка. Перезагрузка (2017.11.27) WEB-DL [H.264 / 720p-LQ] (сезон 14: Венеция. Италия) торрент скачать бесплатно




    Орел и решка. Перезагрузка (2017.11.27) WEB-DL [H.264 / 720p-LQ] (сезон 14: Венеция. Италия) торрент скачать бесплатно

    Опубликовал: Админ | Дата: 29-11-2017, 05:00 | Просмотров: 0

    Телекомпания: ИНТЕР
    Жанр: Реалити-шоу, путешествия, география, познавательный
    Ведущий: Настя Ивлеева и Антон Птушкин

    Описание

    Шесть лет назад команда проекта Орел и решка впервые отправилась в большое путешествие по самым интересным городам нашей планеты. За прошедшее время в них столько всего изменилось, что создатели шоу решили приехать сюда снова. Орел и решка объявляет перезагрузку! Телезрителей ждет встреча с невиданными чудесами, новыми незабываемыми впечатлениями и самое главное - с новыми ведущими!

    Возраст: 12+ (зрителям, достигшим 12 лет)
    Релиз от: svlesin
    Продолжительность: ~ 00: 49: 24
    Качество видео: WEB-DL
    Субтитры: Отсутствуют
    Видео: AVC, 1280x720 (16: 9), 25.000 fps, 3 524 Kbps (0.153 bit/pixel)
    Аудио: AC-3, 44.1 KHz, 2 ch, 192 Kbps, CBR
    Код: выделить все
    Общее
    Уникальный идентификатор : 173024691848154386159804799173301669409 (0x822B57F0973B33018ABDFD4246888E21)
    Полное имя : D:[1]Орел и решкаОрел и решка. Перезагрузка (2017.11.27)_720 - Венеция. Италия.mkv
    Формат : Matroska
    Версия формата : Version 4/Version 2
    Размер файла : 1, 31 Гбайт
    Продолжительность : 49 м.
    Общий поток : 3791 Кбит/сек
    Название фильма : Орел и решка. Перезагрузка (2017.11.27)_720 - Венеция. Италия_nnm-club.name
    Дата кодирования : UTC 2017-11-27 20:42:20
    Программа кодирования : mkvmerge v17.0.0 (\'Be Ur Friend\') 64-bit
    Библиотека кодирования : libebml v1.3.5 + libmatroska v1.4.8
    Attachements : nnm-club.name.png
    DURATION : 00:49:23.993000000
    NUMBER_OF_FRAMES : 85099
    NUMBER_OF_BYTES : 71135816
    _STATISTICS_WRITING_APP : mkvmerge v17.0.0 (\'Be Ur Friend\') 64-bit
    _STATISTICS_WRITING_DATE_UTC : 2017-11-27 20:42:20
    _STATISTICS_TAGS : BPS DURATION NUMBER_OF_FRAMES NUMBER_OF_BYTES
    Видео
    Идентификатор : 1
    Формат : AVC
    Формат/Информация : Advanced Video Codec
    Профиль формата :High@L3.1
    Параметр CABAC формата : Да
    Параметр ReFrames формата : 1 кадр
    Параметр GOP формата : M=1, N=12
    Идентификатор кодека : V_MPEG4/ISO/AVC
    Продолжительность : 49 м.
    Битрейт : 3524 Кбит/сек
    Ширина : 1280 пикселей
    Высота : 720 пикселей
    Соотношение сторон : 16:9
    Режим частоты кадров : Постоянный
    Частота кадров : 25, 000 кадров/сек
    Стандарт вещания : Component
    Цветовое пространство : YUV
    Субдискретизация насыщенности : 4:2:0
    Битовая глубина : 8 бит
    Тип развёртки : Прогрессивная
    Бит/(Пиксели*Кадры) : 0.153
    Размер потока : 1, 22 Гбайт (93%)
    Язык : English
    Default : Да
    Forced : Нет
    Цветовой диапазон : Limited
    Аудио
    Идентификатор : 2
    Формат : AC-3
    Формат/Информация : Audio Coding 3
    Расширение режима : CM (complete main)
    Параметр Endianness формата : Big
    Идентификатор кодека : A_AC3
    Продолжительность : 49 м.
    Вид битрейта : Постоянный
    Битрейт : 192 Кбит/сек
    Каналы : 2 канала
    Расположение каналов : Front: L R
    Частота : 44, 1 КГц
    Битовая глубина : 16 бит
    Метод сжатия : С потерями
    Размер потока : 67, 8 Мбайт (5%)
    Default : Да
    Forced : Нет
    Золотая карта досталась Насте Ивлеевой. А Антона со ста долларами с первых минут ждали неприятные сюрпризы. Почти весь его бюджет уйдет на проезд и проживание. Но даже при таком положении парень прекрасно проведет время. Ведь самое лучшее, что можно сделать в Венеции – заблудиться… Только тогда можно увидеть город таким, каким его видят местные жители. Практически безлюдным, с узкими улочками, роскошными палаццо и красивыми мостами... А чем еще стоит заняться в невероятной и творческой Венеции, узнаем из программы Орел и решка. Перезагрузка.

    Скриншоты для ознакомления



    Все одноименные релизы в Клубе
    Время раздачи: 24/7. До первых 5 скачавших.


    Орел и решка. Перезагрузка (2017.11.27) WEB-DL [H.264/720p-LQ] (сезон 14: Венеция. Италия)
    загрузка...
    Рейтинг →
     (голосов: 1, оценка 4/5, голосовать можно 1 раз )

    Другие торренты по теме:

  • Орел и решка. Перезагрузка (2017.12.11) WEB-DL [H.264 / 720p-LQ] (сезон 14: Канарские острова)
  • Орел и решка. Перезагрузка (2017.12.11) WEB-DLRip (сезон 14: Канарские острова)
  • Орел и решка. Сезон №1. Шопинг. Стокгольм (2014.09.23) SATRip
  • Орел и решка. Сезон №9. Неизведанная Европа. Роттердам (2014.09.28) SATRip
  • Орел и решка. Сезон №1. Шопинг. Амман (2014.09.30) SATRip скачать через торрент бесплатно
  • Орел и решка. Сезон №9. Неизведанная Европа. Страна Басков (Испания) (2014.10.05) SATRip скачать через торрент бесплатно
  • Орел и решка. Сезон №9. Неизведанная Европа. Сараево (2014.10.06) SATRip скачать через торрент бесплатно
  • Орел и решка (1-8 сезон: 1-134 выпуски, Неизданное 1-3 выпуск) (2011 - 2014) SATRip, HDTVRip скачать через торрент бесплатно


    • Комментарии (0):

      Информация

      Информация

        Посетители, находящиеся в группе Гости, не могут оставлять комментарии в данной новости.

        ↓ Меню




        ↓ Опрос

        Вы добавили сайт в закладки?
        Да
        Нет


        Top 10 за месяц (Передачи)