.
Авторизация | Регистрация
Хочешь лучшие торренты? Добавь свой email!
Добавить

Торрент скачать бесплатно

» » Специальный репортаж. Утомленные майданом (27.11.2017) WEBRip [H.264] торрент скачать бесплатно




    Специальный репортаж. Утомленные майданом (27.11.2017) WEBRip [H.264] торрент скачать бесплатно

    Опубликовал: Админ | Дата: 29-11-2017, 05:00 | Просмотров: 0

    Телекомпания: Россия, АО ТВ Центр
    Жанр: Политика
    Режиссер: Валерий Конин

    Описание

    Специальный репортаж - цикл передач на телеканале ТВ Центр, который освещает темы и события, вызвавшие большой общественный интерес.
    В ноябре 2013-го в Киеве и в ряде других украинских городов начались акции протеста, получившие общее название евромайдан. Очень скоро они переросли в вооружённый переворот и насильственную смену правящего режима. За этим последовали раскол государства и гражданская война на юго-востоке Украины. Герои специального репортажа – простые украинцы, чьи судьбы были затронуты этими событиями, для каждого из которых трагедия Украины после евромайдана – это личная беда и боль. Всем им пришлось покинуть родину и перебраться в Россию, чтобы начать всё заново. Они поделились со зрителями своими личными историями и воспоминаниями. Как сейчас живётся простым людям на Украине? Что происходит в стране?
    Продолжительность: 00: 26: 20
    Качество видео: WEBRip
    Видео: AVC/H.264, 1440x810 (16: 9), ~2300 Kbps
    Аудио: AAC, 2 ch, 157 Kbps

    General
    Unique ID : 242570241462264000079518761434418073613 (0xB67D544427535DFB972B321A4D85500D)
    Complete name : D: FilmСпециальный репортаж Утомленные майданом.mkv
    Format : Matroska
    Format version : Version 4/Version 2
    File size : 460 MiB
    Duration : 26 min 20 s
    Overall bit rate mode : Variable
    Overall bit rate : 2 445 kb/s
    Encoded date : UTC 2017-11-28 08: 33: 21
    Writing application : mkvmerge v18.0.0 (\'Apricity\') 64-bit
    Writing library : libebml v1.3.5 + libmatroska v1.4.8
    Cover : Yes
    Attachments : cover.png
    Video
    ID : 1
    Format : AVC
    Format/Info : Advanced Video Codec
    Format profile : High@L4
    Format settings : CABAC/3 Ref Frames
    Format settings, CABAC : Yes
    Format settings, RefFrames : 3 frames
    Codec ID : V_MPEG4/ISO/AVC
    Duration : 26 min 19 s
    Bit rate mode : Variable
    Bit rate : 2 280 kb/s
    Maximum bit rate : 8 000 kb/s
    Width : 1 440 pixels
    Height : 810 pixels
    Display aspect ratio : 16: 9
    Frame rate mode : Constant
    Frame rate : 25.000 FPS
    Color space : YUV
    Chroma subsampling : 4: 2: 0
    Bit depth : 8 bits
    Scan type : Progressive
    Bits/(Pixel*Frame) : 0.078
    Stream size : 430 MiB (93%)
    Language : Russian
    Default : Yes
    Forced : No
    Color range : Limited
    Color primaries : BT.709
    Transfer characteristics : BT.709
    Matrix coefficients : BT.709
    Audio
    ID : 2
    Format : AAC
    Format/Info : Advanced Audio Codec
    Format profile : LC
    Codec ID : A_AAC-2
    Duration : 26 min 19 s
    Bit rate : 157 kb/s
    Channel(s) : 2 channels
    Channel positions : Front: L R
    Sampling rate : 48.0 kHz
    Frame rate : 46.875 FPS (1024 SPF)
    Compression mode : Lossy
    Delay relative to video : -40 ms
    Stream size : 29.6 MiB (6%)
    Language : Russian
    Default : Yes
    Forced : No

    Скриншоты для ознакомления









    Все одноименные релизы в Клубе
    Время раздачи: 07: 00-23: 00 (до появления первых 3-5 скачавших)


    Специальный репортаж. Утомленные майданом (27.11.2017) WEBRip [H.264]
    загрузка...
    Рейтинг →
     (голосов: 1, оценка 5/5, голосовать можно 1 раз )

    Другие торренты по теме:

  • Специальный репортаж. Санкции. Политика против экономики (2014.09.23) SATRip
  • Специальный репортаж. Дым смерти (2014.09.30) SATRip
  • Специальный репортаж. Образ врага (2014.10.06) SATRip скачать через торрент бесплатно
  • Специальный репортаж. Деловая схватка (2014.10.13) SATRip
  • Специальный репортаж. Две пятерки Касатонова (2014.10.14) SATRip скачать через торрент бесплатно
  • Специальный репортаж. Украина. Война и выборы (2014.10.20) SATRip скачать через торрент бесплатно
  • Специальный репортаж. Украина. Выбор сделан (2014.10.26) SATRip
  • Главная сцена. Специальный репортаж (2015.03.06) SATRip скачать через торрент бесплатно


    • Комментарии (0):

      Информация

      Информация

        Посетители, находящиеся в группе Гости, не могут оставлять комментарии в данной новости.

        ↓ Меню




        ↓ Опрос

        Вы добавили сайт в закладки?
        Да
        Нет


        Top 10 за месяц (Передачи)