.
Авторизация | Регистрация
Хочешь лучшие торренты? Добавь свой email!
Добавить

Торрент скачать бесплатно

» » Осторожно, мошенники! Мастера похоронных дел (2017.11.28) SATRip торрент скачать бесплатно




    Осторожно, мошенники! Мастера похоронных дел (2017.11.28) SATRip торрент скачать бесплатно

    Опубликовал: Админ | Дата: 29-11-2017, 05:00 | Просмотров: 0

    Телекомпания: ТВЦ
    Жанр: Документальный
    Производство: Россия

    Описание

    Наверное, каждый хоть раз становился жертвой мошенников: будь то игра в моментальные лотереи, приобретение ненужных, а иногда и вредных пищевых добавок или общение с вымогателями денег по телефону, для пополнения мобильного счёта бедного чада, оставшегося без связи. В помощь нежелающим наступать на старые грабли зрителям на канале ТВ Центр в стартует новая программа Осторожно, мошенники!, которая еженедельно станет рассказывать о самых распространенных способах отъема денег у граждан и способах борьбы с ними.
    Продолжительность: ~ 00: 26: 16
    Качество видео: SATRip
    Субтитры: Отсутствуют
    Видео: MPEG4, XviD, 720x400 (16: 9), 25.000 fps, 1 805 Kbps (0.251 bit/pixel)
    Аудио: MP3, 48.0 KHz, 2 ch, 128 Kbps, CBR
    Код: выделить все
    Общее
    Полное имя : D:[1]Осторожно, мошенникиОсторожно, мошенники! Мастера похоронных дел (2017.11.28).avi
    Формат : AVI
    Формат/Информация : Audio Video Interleave
    Размер файла : 365 Мбайт
    Продолжительность : 26 м.
    Общий поток : 1943 Кбит/сек
    Программа кодирования : VirtualDubMod 1.5.10.3 |www.virtualdub-fr.org|| (build 2550/release)
    Библиотека кодирования : VirtualDubMod build 2550/release
    Видео
    Идентификатор : 0
    Формат : MPEG-4 Visual
    Профиль формата : Advanced Simple@L5
    Параметр BVOP формата : 1
    Параметр QPel формата : Нет
    Параметр GMC формата : Без точки перехода
    Параметр матрицы формата : Default (MPEG)
    Идентификатор кодека : XVID
    Идентификатор кодека/Подсказка : XviD
    Продолжительность : 26 м.
    Битрейт : 1805 Кбит/сек
    Ширина : 720 пикселей
    Высота : 400 пикселей
    Соотношение сторон : 16:9
    Частота кадров : 25, 000 кадров/сек
    Цветовое пространство : YUV
    Субдискретизация насыщенности : 4:2:0
    Битовая глубина : 8 бит
    Тип развёртки : Прогрессивная
    Метод сжатия : С потерями
    Бит/(Пиксели*Кадры) : 0.251
    Размер потока : 339 Мбайт (93%)
    Библиотека кодирования : XviD 1.2.1 (UTC 2008-12-04)
    Аудио
    Идентификатор : 1
    Формат : MPEG Audio
    Версия формата : Version 1
    Профиль формата : Layer 3
    Идентификатор кодека : 55
    Идентификатор кодека/Подсказка : MP3
    Продолжительность : 26 м.
    Вид битрейта : Постоянный
    Битрейт : 128 Кбит/сек
    Каналы : 2 канала
    Частота : 48, 0 КГц
    Метод сжатия : С потерями
    Размер потока : 24, 1 Мбайт (7%)
    Выравнивание : Соединение по промежуткам
    Продолжительность промежутка : 40 мс. (1, 00 видеокадр)
    Время предзагрузки промежутка : 504 мс.
    Библиотека кодирования : LAME3.99r
    Настройки программы : -m s -V 4 -q 2 -lowpass 17 -b 128
    У этих похоронных агентов самая горячая информация, они заламывают цены, пока родственники не отошли от горя… Как мошенники прикрываются государственными службами, строят морги на садовых участках и теряют покойников?

    Скриншоты для ознакомления



    Все одноименные релизы в Клубе
    Время раздачи: 24/7. До первых 5 скачавших.


    Осторожно, мошенники! Мастера похоронных дел (2017.11.28) SATRip
    загрузка...
    Рейтинг →
     (голосов: 1, оценка 5/5, голосовать можно 1 раз )

    Другие торренты по теме:

  • Осторожно, мошенники! Ядовитый дом (2014.09.23) SATRip
  • Осторожно, мошенники! Торговля должностями (2014.09.30) SATRip
  • Осторожно, мошенники! Жертвы рекламы (2014.10.07) SATRip
  • Осторожно, мошенники! Нанореволюция (2014.10.21) SATRip
  • Осторожно, мошенники! Развод автомобилиста (2014.10.28) SATRip скачать через торрент бесплатно
  • Осторожно, мошенники! Мебель не для нервных (2014.11.11) SATRip
  • Осторожно, мошенники! Красота в кредит (2014.11.18) SATRip скачать через торрент бесплатно
  • Осторожно, мошенники! Таблетка от жира (2014.12.02) SATRip скачать через торрент бесплатно


    • Комментарии (0):

      Информация

      Информация

        Посетители, находящиеся в группе Гости, не могут оставлять комментарии в данной новости.

        ↓ Меню




        ↓ Опрос

        Вы добавили сайт в закладки?
        Да
        Нет


        Top 10 за месяц (Передачи)