.
Авторизация | Регистрация
Хочешь лучшие торренты? Добавь свой email!
Добавить

Торрент скачать бесплатно

» » Вечер с Владимиром Соловьевым (2017.11.28) SATRip торрент скачать бесплатно




    Вечер с Владимиром Соловьевым (2017.11.28) SATRip торрент скачать бесплатно

    Опубликовал: Админ | Дата: 29-11-2017, 05:00 | Просмотров: 0

    Телекомпания: Россия
    Жанр: Телепередача
    Ведущий: Владимир Соловьёв

    Описание

    Курт Волкер, спецпредставитель США по Украине, считает что в вопросе Донбасса стоят минские соглашения и спор идет по кругу. Мало этого, последние беседы никчему не приводят, а по большому счету - это откат назад. Ну конечно виновата Россия, а не Украина, где эти минские соглашения хоронят и на словах и на деле. Порошенко хочет, чтобы Россия покаялась за голодомор, а рада, чтобы жители Донбасса покаялись за то, что они жители Донбасса и скромно их некоторые деятели сравнивают с тараканами и предлагают их оттуда обрабатывать дихлофосом. А пока США демонстративно долго раздумывают поставлять-ли такому государству летальное оружие, Европа начинает прозревать. Генсек Совета Европы заявил, что надо рассмотреть вопрос о снятии санкций с России, если Россия поставит порос о выходе из организации.
    Продолжительность: ~ 02: 26: 39
    Качество видео: SATRip
    Субтитры: Отсутствуют
    Видео: MPEG4, XviD, 720x400 (16: 9), 25.000 fps, 1 805 Kbps (0.251 bit/pixel)
    Аудио: MP3, 48.0 KHz, 2 ch, 128 Kbps, CBR
    Код: выделить все
    Общее
    Полное имя : D:[1]Вечер с Владимиром СоловьевымВечер с Владимиром Соловьевым (2017.11.28).avi
    Формат : AVI
    Формат/Информация : Audio Video Interleave
    Профиль формата : OpenDML
    Размер файла : 1, 99 Гбайт
    Продолжительность : 2 ч. 26 м.
    Общий поток : 1946 Кбит/сек
    Программа кодирования : VirtualDubMod 1.5.10.3 |www.virtualdub-fr.org|| (build 2550/release)
    Библиотека кодирования : VirtualDubMod build 2550/release
    Видео
    Идентификатор : 0
    Формат : MPEG-4 Visual
    Профиль формата : Advanced Simple@L5
    Параметр BVOP формата : 1
    Параметр QPel формата : Нет
    Параметр GMC формата : Без точки перехода
    Параметр матрицы формата : Default (MPEG)
    Идентификатор кодека : XVID
    Идентификатор кодека/Подсказка : XviD
    Продолжительность : 2 ч. 26 м.
    Битрейт : 1805 Кбит/сек
    Ширина : 720 пикселей
    Высота : 400 пикселей
    Соотношение сторон : 16:9
    Частота кадров : 25, 000 кадров/сек
    Цветовое пространство : YUV
    Субдискретизация насыщенности : 4:2:0
    Битовая глубина : 8 бит
    Тип развёртки : Прогрессивная
    Метод сжатия : С потерями
    Бит/(Пиксели*Кадры) : 0.251
    Размер потока : 1, 85 Гбайт (93%)
    Библиотека кодирования : XviD 1.2.1 (UTC 2008-12-04)
    Аудио
    Идентификатор : 1
    Формат : MPEG Audio
    Версия формата : Version 1
    Профиль формата : Layer 3
    Идентификатор кодека : 55
    Идентификатор кодека/Подсказка : MP3
    Продолжительность : 2 ч. 26 м.
    Вид битрейта : Постоянный
    Битрейт : 128 Кбит/сек
    Каналы : 2 канала
    Частота : 48, 0 КГц
    Метод сжатия : С потерями
    Размер потока : 134 Мбайт (7%)
    Выравнивание : Соединение по промежуткам
    Продолжительность промежутка : 40 мс. (1, 00 видеокадр)
    Время предзагрузки промежутка : 504 мс.
    Библиотека кодирования : LAME3.99r
    Настройки программы : -m s -V 4 -q 2 -lowpass 17 -b 128

    Скриншоты для ознакомления



    Все одноименные релизы в Клубе
    Время раздачи: 24/7. До первых 5 скачавших.


    Вечер с Владимиром Соловьевым (2017.11.28) SATRip
    загрузка...
    Рейтинг →
     (голосов: 1, оценка 3/5, голосовать можно 1 раз )

    Другие торренты по теме:

  • Вечер с Владимиром Соловьевым (2014.09.25) SATRip
  • Вечер с Владимиром Соловьевым (2014.09.24) SATRip
  • Вечер с Владимиром Соловьевым (2014.09.23) SATRip
  • Вечер с Владимиром Соловьевым (2014.09.22) SATRip
  • Воскресный вечер с Владимиром Соловьевым (2014.09.21) SATRip
  • Воскресный вечер с Владимиром Соловьевым (2014.09.28) SATRip
  • Вечер с Владимиром Соловьевым (2014.09.29) SATRip
  • Вечер с Владимиром Соловьевым (2014.09.30) SATRip скачать через торрент бесплатно


    • Комментарии (0):

      Информация

      Информация

        Посетители, находящиеся в группе Гости, не могут оставлять комментарии в данной новости.

        ↓ Меню




        ↓ Опрос

        Вы добавили сайт в закладки?
        Да
        Нет


        Top 10 за месяц (Передачи)