.
Авторизация | Регистрация
Хочешь лучшие торренты? Добавь свой email!
Добавить

Торрент скачать бесплатно

» » Беседа с Евгением Федоровым (23.11.2017) WEBRip [H.264 / 720p-LQ] торрент скачать бесплатно




    Беседа с Евгением Федоровым (23.11.2017) WEBRip [H.264 / 720p-LQ] торрент скачать бесплатно

    Опубликовал: Админ | Дата: 29-11-2017, 05:00 | Просмотров: 0

    Производство: Телевидение Национально-Освободительного Движения
    Жанр: Политика
    Участники: Армен Хачатрян, Денис Ганич, Евгений Федоров

    Описание

    Активисты НОД встретились с депутатом Государственной Думы России, координатором НОД Евгением Федоровым. Темы беседы: проблемы валютныx ипотечников; процентная ставка в России и в мире, какова цена денег; можно ли считать ситуацию с ипотечниками как чрезвычайную; зачем во Франции арестовали сенатора миллиардера Сулеймана Керимова; ситуация перед выборами Президента России.
    Продолжительность: 01: 16: 12
    Качество видео: WEBRip
    Видео: AVC/H.264, 1280x720 (16: 9), ~846 Kbps
    Аудио: AAC, 2 ch, 126 Kbps

    General
    Unique ID : 208341287685526707941283742110690546463 (0x9CBD128CC6B88B319AD0F7EFB7FB931F)
    Complete name : D: FilmБеседа с Евгением Федоровым 23.11.2017.mkv
    Format : Matroska
    Format version : Version 4/Version 2
    File size : 531 MiB
    Duration : 1 h 16 min
    Overall bit rate : 975 kb/s
    Encoded date : UTC 2017-11-28 14: 34: 47
    Writing application : mkvmerge v18.0.0 (\'Apricity\') 64-bit
    Writing library : libebml v1.3.5 + libmatroska v1.4.8
    Cover : Yes
    Attachments : cover.png
    Video
    ID : 1
    Format : AVC
    Format/Info : Advanced Video Codec
    Format profile : Main@L3.1
    Format settings : CABAC/3 Ref Frames
    Format settings, CABAC : Yes
    Format settings, RefFrames : 3 frames
    Codec ID : V_MPEG4/ISO/AVC
    Duration : 1 h 16 min
    Bit rate : 846 kb/s
    Width : 1 280 pixels
    Height : 720 pixels
    Display aspect ratio : 16: 9
    Frame rate mode : Constant
    Frame rate : 25.000 FPS
    Color space : YUV
    Chroma subsampling : 4: 2: 0
    Bit depth : 8 bits
    Scan type : Progressive
    Bits/(Pixel*Frame) : 0.037
    Stream size : 461 MiB (87%)
    Language : Russian
    Default : Yes
    Forced : No
    Color range : Limited
    Color primaries : BT.709
    Transfer characteristics : BT.709
    Matrix coefficients : BT.709
    Audio
    ID : 2
    Format : AAC
    Format/Info : Advanced Audio Codec
    Format profile : LC
    Codec ID : A_AAC-2
    Duration : 1 h 16 min
    Bit rate : 126 kb/s
    Channel(s) : 2 channels
    Channel positions : Front: L R
    Sampling rate : 44.1 kHz
    Frame rate : 43.066 FPS (1024 SPF)
    Compression mode : Lossy
    Stream size : 68.5 MiB (13%)
    Language : Russian
    Default : Yes
    Forced : No

    Скриншоты для ознакомления



    Все одноименные релизы в Клубе
    Время раздачи: 07: 00-23: 00 (до появления первых 3-5 скачавших)


    Беседа с Евгением Федоровым (23.11.2017) WEBRip [H.264/720p-LQ]
    загрузка...
    Рейтинг →
     (голосов: 1, оценка 4/5, голосовать можно 1 раз )

    Другие торренты по теме:

  • Беседа с Евгением Федоровым (29.07.2017) WEBRip [H.264 / 720p-LQ]
  • Беседа с Евгением Федоровым (06.09.2017) WEBRip [H.264 / 1080p-LQ]
  • Беседа с Евгением Федоровым (05.09.2017) WEBRip [H.264 / 720p-LQ]
  • Беседа с Евгением Федоровым. Банковский кризис в России (13.09.2017) WEBRip [H.264 / 720p-LQ]
  • Беседа с Евгением Федоровым (18.09.2017) WEBRip [H.264 / 720p-LQ]
  • Беседа с Евгением Федоровым (20.09.2017) WEBRip [H.264 / 720p-LQ]
  • Беседа с Евгением Федоровым (22.09.2017) WEBRip [H.264 / 720p-LQ]
  • Беседа с Евгением Федоровым. Политика ЦБ (26.09.2017) WEBRip [H.264 / 1080p-LQ]


    • Комментарии (0):

      Информация

      Информация

        Посетители, находящиеся в группе Гости, не могут оставлять комментарии в данной новости.

        ↓ Меню




        ↓ Опрос

        Вы добавили сайт в закладки?
        Да
        Нет


        Top 10 за месяц (Передачи)