.
Авторизация | Регистрация
Хочешь лучшие торренты? Добавь свой email!
Добавить

Торрент скачать бесплатно

» » Virgin Australia Supercars Championship. Сезон 2017. Coates Hire Newcastle 500. Гонка 1. Этап 14 (25.11.2017) HDTVRip [H.264 / 720p-LQ] [VO] торрент скачать бесплатно




    Virgin Australia Supercars Championship. Сезон 2017. Coates Hire Newcastle 500. Гонка 1. Этап 14 (25.11.2017) HDTVRip [H.264 / 720p-LQ] [VO] торрент скачать бесплатно

    Опубликовал: Админ | Дата: 28-11-2017, 05:00 | Просмотров: 0

    Жанр: Спорт

    Описание

    Австралийский чемпионат по шоссейно-кольцевым автогонкам среди легковых автомобилей сезон любимого сериалаа 2017 года - Этап 14
    Релиз от:
    Продолжительность: 02: 45: 24
    Качество видео: HDTVRip
    Перевод: Одноголосый закадровый, любительский
    Язык: Русский
    Видео: AVC/H.264, 1280х720, ~3506 Kbps
    Аудио: AAC, 2 ch, 192 Kbps

    General
    Complete name : E: Записи телевизионных шоуРазноеVirgin Australia Supercars Championship. Coates Hire Newcastle 500. Гонка 1, 25.11.2017 545TV, A21 Network.mp4
    Format : MPEG-4
    Format profile : Base Media
    Codec ID : isom (isom/iso2/avc1/mp41)
    File size : 4.28 GiB
    Duration : 2 h 45 min
    Overall bit rate : 3 708 kb/s
    Writing application : Lavf56.25.101
    Video
    ID : 1
    Format : AVC
    Format/Info : Advanced Video Codec
    Format profile : Main@L3.1
    Format settings, CABAC : Yes
    Format settings, ReFrames : 4 frames
    Format settings, GOP : M=4, N=60
    Codec ID : avc1
    Codec ID/Info : Advanced Video Coding
    Duration : 2 h 45 min
    Bit rate : 3 506 kb/s
    Width : 1 280 pixels
    Height : 720 pixels
    Display aspect ratio : 16: 9
    Frame rate mode : Variable
    Frame rate : 30.054 FPS
    Minimum frame rate : 19.608 FPS
    Maximum frame rate : 100.000 FPS
    Color space : YUV
    Chroma subsampling : 4: 2: 0
    Bit depth : 8 bits
    Scan type : Progressive
    Bits/(Pixel*Frame) : 0.127
    Stream size : 4.05 GiB (95%)
    Audio
    ID : 2
    Format : AAC
    Format/Info : Advanced Audio Codec
    Format profile : LC
    Codec ID : 40
    Duration : 2 h 45 min
    Bit rate mode : Constant
    Bit rate : 192 kb/s
    Channel(s) : 2 channels
    Channel positions : Front: L R
    Sampling rate : 44.1 kHz
    Frame rate : 43.066 FPS (1024 spf)
    Compression mode : Lossy
    Stream size : 224 MiB (5%)
    Default : Yes
    Alternate group : 1

    Скриншоты для ознакомления



    Все одноименные релизы в Клубе
    Время раздачи: с 10.00 до 0.00 (до появления первых 3-5 скачавших)


    Virgin Australia Supercars Championship. Сезон 2017. Coates Hire Newcastle 500. Гонка 1. Этап 14 (25.11.2017) HDTVRip [H.264/720p-LQ] [VO]
    загрузка...
    Рейтинг →
     (голосов: 1, оценка 4/5, голосовать можно 1 раз )

    Другие торренты по теме:

  • Virgin Australia Supercars Championship. Сезон 2017. Этап 1 - Clipsal 500 Adelaide. Гонка 1, 4.03.2017 HDTVRip [H.264 / 720p-LQ]
  • Virgin Australia Supercars Championship. Сезон 2017. Этап 1 - Clipsal 500 Adelaide. Гонка 2, 5.03.2017 HDTVRip [H.264 / 720p-LQ]
  • Virgin Australia Supercars Championship. Сезон 2017. Tasmania. Этап 2. Гонка 2 (9.04.2017) HDTVRip [H.264 / 720p-LQ] [VO]
  • Virgin Australia Supercars Championship. Сезон 2017. Tasmania. Этап 2. Гонка 1 (8.04.2017) HDTVRip [H.264 / 720p-LQ] [VO]
  • Virgin Australia Supercars Championship. Сезон 2017. Phillip Island 500. Этап 3. Гонка 2 (23.04.2017) HDTVRip [H.264 / 720p-LQ] [VO]
  • Virgin Australia Supercars Championship. Сезон 2017. Phillip Island 500. Этап 3. Гонка 1 (22.04.2017) HDTVRip [H.264 / 720p-LQ] [VO]
  • Virgin Australia Supercars Championship. Сезон 2017. Perth SuperSprint. Этап 4. Гонка 2 (07.05.2017) HDTVRip [H.264 / 720p-LQ] [VO]
  • Virgin Australia Supercars Championship. Сезон 2017. Perth SuperSprint. Этап 4. Гонка 1 (06.05.2017) HDTVRip [H.264 / 720p-LQ] [VO]


    • Комментарии (0):

      Информация

      Информация

        Посетители, находящиеся в группе Гости, не могут оставлять комментарии в данной новости.

        ↓ Меню




        ↓ Опрос

        Вы добавили сайт в закладки?
        Да
        Нет


        Top 10 за месяц (Передачи)