.
Авторизация | Регистрация
Хочешь лучшие торренты? Добавь свой email!
Добавить

Торрент скачать бесплатно

» » Формула 1. Гран-при Абу-Даби 2017. 20-й Этап. Гонка (26.11.2017) HDTV [H.264 / 1080i] торрент скачать бесплатно




    Формула 1. Гран-при Абу-Даби 2017. 20-й Этап. Гонка (26.11.2017) HDTV [H.264 / 1080i] торрент скачать бесплатно

    Опубликовал: Админ | Дата: 28-11-2017, 05:00 | Просмотров: 0

    Телекомпания: Россия, Матч HD
    Жанр: Спорт
    Комментаторы: Алексей Попов, Наталья Фабричнова

    Описание

    В ноябре на острове Яс проходит последний этап чемпионата мира по автогонкам Формулы-1. Даже если ты не поклонник подобных развлечений, на таком мероприятии стоит побывать хотя бы раз в жизни.
    От всех остальных трасс Марина Яс отличается в первую очередь самым протяжённым прямым участком. Часть трассы проходит рядом с побережьем, поэтому наблюдать за гонкой можно даже с борта яхты.
    На 5, 55 километровой трассе возможно развить скорость до 320 км/час. Это единственные гонки Формулы-1, которые начинаются днём и заканчиваются ночью.улучшается.

    Продолжительность: 02: 19: 38
    Качество видео: HDTV
    Язык озвучки: Русский
    Видео: AVC/H.264, 1920x1080, ~ 8600 Kbps
    Аудио: MP2, 2 ch, 192 Kbps | Русский

    General
    ID : 1 (0x1)
    Complete name : F: F1.Round.20.Abu.Dhabi.Grand.Prix.2017.Race.HDTV.1080i.ts
    Format : MPEG-TS
    File size : 9.01 GiB
    Duration : 2 h 19 min
    Overall bit rate mode : Variable
    Overall bit rate : 9 238 kb/s
    Video
    ID : 324 (0x144)
    Menu ID : 12104 (0x2F48)
    Format : AVC
    Format/Info : Advanced Video Codec
    Format profile : High@L4
    Format settings, CABAC : Yes
    Format settings, RefFrames : 4 frames
    Codec ID : 27
    Duration : 2 h 19 min
    Bit rate : 8 588 kb/s
    Width : 1 920 pixels
    Height : 1 080 pixels
    Display aspect ratio : 16: 9
    Frame rate : 25.000 FPS
    Standard : Component
    Color space : YUV
    Chroma subsampling : 4: 2: 0
    Bit depth : 8 bits
    Scan type : Interlaced
    Scan type, store method : Separated fields
    Scan order : Top Field First
    Bits/(Pixel*Frame) : 0.166
    Stream size : 8.38 GiB (93%)
    Color range : Limited
    Color primaries : BT.709
    Transfer characteristics : BT.709
    Matrix coefficients : BT.709
    Audio
    ID : 404 (0x194)
    Menu ID : 12104 (0x2F48)
    Format : MPEG Audio
    Format version : Version 1
    Format profile : Layer 2
    Codec ID : 3
    Duration : 2 h 19 min
    Bit rate mode : Constant
    Bit rate : 192 kb/s
    Channel(s) : 2 channels
    Sampling rate : 48.0 kHz
    Compression mode : Lossy
    Delay relative to video : -120 ms
    Stream size : 192 MiB (2%)
    Language : Russian

    Скриншоты для ознакомления



    Все одноименные релизы в Клубе
    Время раздачи: до 3-х скачавших, далее по возможности. (до появления первых 3-5 скачавших)


    Формула 1. Гран-при Абу-Даби 2017. 20-й Этап. Гонка (26.11.2017) HDTV [H.264/1080i]
    загрузка...
    Рейтинг →
     (голосов: 1, оценка 4/5, голосовать можно 1 раз )

    Другие торренты по теме:

  • Формула 1. Гран-При Сингапура. Гонка (2014) HDTVRip [H.264 / 720p] [hand made 50fps]
  • Формула 1. Гран-При Японии. Гонка (2014) HDTVRip [H.264 / 720p] [hand made 50fps] скачать через торрент бесплатно
  • Формула 1. Гран-При России. Квалификация (2014) HDTVRip [H.264 / 720p] [hand made 50fps] скачать через торрент бесплатно
  • Формула 1. Гран-При России. Гонка (2014) HDTVRip [H.264 / 720p] [hand made 50fps] скачать через торрент бесплатно
  • Формула 1. Гран-При России. Гонка (2014) HDTVRip [H.264] скачать через торрент бесплатно
  • Формула 1. Гран-При США. Квалификация (2014) HDTVRip [H.264]
  • Формула 1. Гран-При США. Гонка (2014) HDTVRip [H.264 / 720p] [hand made 50fps] скачать через торрент бесплатно
  • Формула 1. Гран-При Бразилии. Квалификация (2014) HDTVRip [H.264] скачать через торрент бесплатно


    • Комментарии (0):

      Информация

      Информация

        Посетители, находящиеся в группе Гости, не могут оставлять комментарии в данной новости.

        ↓ Меню




        ↓ Опрос

        Вы добавили сайт в закладки?
        Да
        Нет


        Top 10 за месяц (Передачи)