.
Авторизация | Регистрация
Хочешь лучшие торренты? Добавь свой email!
Добавить

Торрент скачать бесплатно

» » Футбол. Лига Европы УЕФА 2017-2018. Группа J. 5-й тур. Эстерсунд (Швеция) – Заря (Украина) (23.11.2017) HDTVRip [H.264 / 720p-LQ] [hand made 50fps] [UKR] торрент скачать бесплатно




    Футбол. Лига Европы УЕФА 2017-2018. Группа J. 5-й тур. Эстерсунд (Швеция) – Заря (Украина) (23.11.2017) HDTVRip [H.264 / 720p-LQ] [hand made 50fps] [UKR] торрент скачать бесплатно

    Опубликовал: Админ | Дата: 28-11-2017, 05:00 | Просмотров: 0

    Телекомпания: Футбол 1 HD (Украина)
    Жанр: Спорт

    Описание
    23 ноября 2017 года, четверг. 21: 00 МСК
    Лига Европы УЕФА 2017 - 2018. Групповой турнир
    Группа J. 5-й тур.
    Эстерсунд (Эстерсунд, Швеция) – Заря (Луганск, Украина)
    Стадион: Йемткрафт Арена (Эстерсунд, Швеция), 7754 зрителя (117 % при вместимости 6626)
    Главный судья: Кевин Блом (Нидерланды)
    Ассистент: Роб ван де Вен (Нидерланды)
    Ассистент: Харлес Схап (Нидерланды)
    Резервный: Хессел Стегстра (Нидерланды)
    Продолжительность: 01: 45: 20
    Качество видео: HDTVRip
    Язык озвучки: Украинский
    Субтитры: отсутствуют
    Видео: AVC/H.264, 1280x720 (16: 9), ~3100 Kbps, 50 fps
    Аудио: AC3, 2 ch, 48 kHz, 128 Kbps

    Общее
    Уникальный идентификатор : 295296327504965084979868716588677195941 (0xDE28010395887E5174AE6BF91383E8A5)
    Полное имя : F: SPORTФутболЛига Европы 2017-2018(23.11.2017)_UEFA EuroLeague 17-18.Gr J.5t. Ostersund(Sweden) - Zorya(Ukraine).mkv
    Формат : Matroska
    Версия формата : Version 4/Version 2
    Размер файла : 2, 42 Гбайт
    Продолжительность : 1 ч. 45 м.
    Общий поток : 3293 Кбит/сек
    Название фильма : All Sport on RGFOOTBALL.NET
    Программа кодирования : Lavf57.62.100
    Библиотека кодирования : Lavf57.62.100
    ErrorDetectionType : Per level 1
    Видео
    Идентификатор : 1
    Формат : AVC
    Формат/Информация : Advanced Video Codec
    Профиль формата : High@L4.1
    Настройки формата : CABAC/4 Ref Frames
    Параметр CABAC формата : Да
    Параметр RefFrames формата : 4 кадра
    Идентификатор кодека : V_MPEG4/ISO/AVC
    Продолжительность : 1 ч. 45 м.
    Битрейт : 3100 Кбит/сек
    Ширина : 1280 пикселей
    Высота : 720 пикселей
    Соотношение сторон : 16: 9
    Режим частоты кадров : Переменный
    Цветовое пространство : YUV
    Субдискретизация насыщенности : 4: 2: 0
    Битовая глубина : 8 бит
    Тип развёртки : Прогрессивная
    Размер потока : 2, 28 Гбайт (94%)
    Библиотека кодирования : x264 core 148 r2744 b97ae06
    Настройки программы : cabac=1/ref=3/deblock=1: -1: -1/analyse=0x3: 0x113/me=hex/subme=7/psy=1/psy_rd=1.00: 0.15/mixed_ref=1/me_range=16/chroma_me=1/trellis=1/8x8dct=1/cqm=0/deadzone=21, 11/fast_pskip=1/chroma_qp_offset=-3/threads=6/lookahead_threads=1/sliced_threads=0/nr=0/decimate=1/interlaced=0/bluray_compat=0/constrained_intra=0/bframes=3/b_pyramid=2/b_adapt=1/b_bias=0/direct=1/weightb=1/open_gop=0/weightp=2/keyint=250/keyint_min=25/scenecut=40/intra_refresh=0/rc_lookahead=40/rc=crf/mbtree=1/crf=22.0/qcomp=0.60/qpmin=0/qpmax=69/qpstep=4/vbv_maxrate=5500/vbv_bufsize=2000/crf_max=23.0/nal_hrd=none/filler=0/ip_ratio=1.40/aq=1: 1.00
    Default : Да
    Forced : Нет
    Аудио
    Идентификатор : 2
    Формат : AC-3
    Формат/Информация : Audio Coding 3
    Параметр Endianness формата : Big
    Идентификатор кодека : A_AC3
    Продолжительность : 1 ч. 45 м.
    Вид битрейта : Постоянный
    Битрейт : 128 Кбит/сек
    Каналы : 2 канала
    Расположение каналов : Front: L R
    Частота : 48, 0 КГц
    Частота кадров : 31, 250 кадров/сек (1536 SPF)
    Битовая глубина : 16 бит
    Метод сжатия : С потерями
    Размер потока : 96, 4 Мбайт (4%)
    Библиотека кодирования : Lavc57.72.100 ac3
    Язык : English
    ServiceKind/String : Complete Main
    Default : Нет
    Forced : Нет

    Скриншоты для ознакомления



    Все одноименные релизы в Клубе
    Время раздачи: 24/7 (около 1 месяца)


    Футбол. Лига Европы УЕФА 2017-2018. Группа J. 5-й тур. Эстерсунд (Швеция) – Заря (Украина) (23.11.2017) HDTVRip [H.264/720p-LQ] [hand made 50fps] [UKR]
    загрузка...
    Рейтинг →
     (голосов: 1, оценка 3/5, голосовать можно 1 раз )

    Другие торренты по теме:

  • Футбол. Лига Чемпионов 2014-15 / 1 / 8 финала. Первые матчи. 1-й день. Обзор матчей (2015) HDTVRip 720p скачать через торрент бесплатно
  • Футбол. Лига Чемпионов 2014-15 / 1 / 8 финала. Первый матч. Шальке 04 (Германия) - Реал Мадрид (Испания) ([18.02] (2015)) HDTVRip 720p | 50 fps
  • Футбол. Лига Чемпионов 2015-16. Группа B. 1-й тур Вольфсбург (Германия) - ЦСКА (Россия) (2015) HDTVRip [H.264 / 720p-LQ] скачать через торрент бесплатно
  • Футбол. Лига Чемпионов 2015-16. Группа D. 1-й тур. Манчестер Сити (Англия) - Ювентус (Италия) (2015) HDTVRip [H.264 / 720p-LQ] скачать через торрент бесплатно
  • Футбол. Лига Чемпионов 2015-16. Группа B. 1-й тур. ПСВ Эйндховен (Нидрланды) - Манчестер Юнайтед (Англия) (2015) HDTVRip [H.264 / 720p-LQ] скачать через торрент бесплатно
  • Футбол. Лига Чемпионов 2015-16. Группа A. 1-й тур. Реал Мадрид (Испания) - Шахтёр (Украина) (2015) HDTVRip [H.264 / 720p-LQ] [hand made 50fps] скачать через торрент бесплатно
  • Футбол. Лига Европы 2015-16. Группа B. 1-й тур. Бордо (Франция) - Ливерпуль (Англия) (2015) HDTVRip [H.264 / 720p-LQ] скачать через торрент бесплатно
  • Футбол. Лига Европы 2015-16. Группа H. 1-й тур. Спортинг (Лиссабон, Португалия) – Локомотив (Москва, Россия) (2015) HDTVRip [H.264 / 720p-LQ] скачать через торрент бесплатно


    • Комментарии (0):

      Информация

      Информация

        Посетители, находящиеся в группе Гости, не могут оставлять комментарии в данной новости.

        ↓ Меню




        ↓ Опрос

        Вы добавили сайт в закладки?
        Да
        Нет


        Top 10 за месяц (Передачи)