.
Авторизация | Регистрация
Хочешь лучшие торренты? Добавь свой email!
Добавить

Торрент скачать бесплатно

» » Лыжный спорт. Лыжные гонки Кубок мира 2017-2018. 1-й Этап. Рука (Финляндия). Спринт. Классический стиль Финалы (24.11.2017) HDTV [H.264 / 1080i-LQ] торрент скачать бесплатно




    Лыжный спорт. Лыжные гонки Кубок мира 2017-2018. 1-й Этап. Рука (Финляндия). Спринт. Классический стиль Финалы (24.11.2017) HDTV [H.264 / 1080i-LQ] торрент скачать бесплатно

    Опубликовал: Админ | Дата: 28-11-2017, 05:00 | Просмотров: 0

    Телекомпания: Eurosport 1 HD
    Жанр: Спорт
    Комментатор: Сергей Курдюков

    Описание
    24 ноября 2017 года, пятница
    Кубок Мира по лыжным гонкам 2017-2018. Этап 1, Рука (Финляндия):
    Женщины, Мужчины. Спринт, классический стиль
    Релиз от: SLuMeP
    Продолжительность: 01: 49: 19
    Качество видео: HDTV
    Язык озвучки: Русский, Английский
    Субтитры: отсутствуют
    Видео: AVC/H.264, 1920x1080 (16: 9), ~8906 Kbps
    Аудио #1: MP2, 2 ch, 48 kHz, 192 Kbps | Русский
    Аудио #2: MP2, 2 ch, 48 kHz, 192 Kbps | Английский

    Общее
    Идентификатор : 1 (0x1)
    Полное имя : F: SPORTЛыжные гонки(24.11.2017)_FIS Cross Country 1St. WC 17-18.Ruka(FIN). Sprint Ladies, Men (C) Finals_Eurosport.ts
    Формат : MPEG-TS
    Размер файла : 7, 47 Гбайт
    Продолжительность : 1 ч. 49 м.
    Режим общего битрейта : Переменный
    Общий поток : 9777 Кбит/сек
    Видео
    Идентификатор : 2323 (0x913)
    Идентификатор меню : 323 (0x143)
    Формат : AVC
    Формат/Информация : Advanced Video Codec
    Профиль формата : High@L4
    Настройки формата : CABAC/4 Ref Frames
    Параметр CABAC формата : Да
    Параметр RefFrames формата : 4 кадра
    Идентификатор кодека : 27
    Продолжительность : 1 ч. 49 м.
    Битрейт : 8906 Кбит/сек
    Ширина : 1920 пикселей
    Высота : 1080 пикселей
    Соотношение сторон : 16: 9
    Частота кадров : 25, 000 кадров/сек
    Стандарт вещания : Component
    Цветовое пространство : YUV
    Субдискретизация насыщенности : 4: 2: 0
    Битовая глубина : 8 бит
    Тип развёртки : Чересстрочная
    Метод сохранения типа развёртки : Раздельные поля
    Порядок развёртки : Верхнее поле первое
    Бит/(Пиксели*Кадры) : 0.172
    Размер потока : 6, 80 Гбайт (91%)
    Цветовой диапазон : Limited
    Основные цвета : BT.709
    Характеристики трансфера : BT.709
    Коэффициенты матрицы : BT.709
    Аудио #1
    Идентификатор : 3323 (0xCFB)
    Идентификатор меню : 323 (0x143)
    Формат : MPEG Audio
    Версия формата : Version 1
    Профиль формата : Layer 2
    Идентификатор кодека : 3
    Продолжительность : 1 ч. 49 м.
    Вид битрейта : Постоянный
    Битрейт : 192 Кбит/сек
    Каналы : 2 канала
    Частота : 48, 0 КГц
    Метод сжатия : С потерями
    Задержка видео : -40 мс.
    Размер потока : 150 Мбайт (2%)
    Язык : Russian
    Аудио #2
    Идентификатор : 3324 (0xCFC)
    Идентификатор меню : 323 (0x143)
    Формат : MPEG Audio
    Версия формата : Version 1
    Профиль формата : Layer 2
    Идентификатор кодека : 3
    Продолжительность : 1 ч. 49 м.
    Вид битрейта : Постоянный
    Битрейт : 192 Кбит/сек
    Каналы : 2 канала
    Частота : 48, 0 КГц
    Метод сжатия : С потерями
    Задержка видео : -40 мс.
    Размер потока : 150 Мбайт (2%)
    Язык : English

    Скриншоты для ознакомления



    Все одноименные релизы в Клубе
    Время раздачи: 24/7 (около 1 месяца)


    Лыжный спорт. Лыжные гонки Кубок мира 2017-2018. 1-й Этап. Рука (Финляндия). Спринт. Классический стиль Финалы (24.11.2017) HDTV [H.264/1080i-LQ]
    загрузка...
    Рейтинг →
     (голосов: 1, оценка 3/5, голосовать можно 1 раз )

    Другие торренты по теме:

  • Лыжный спорт. Лыжные гонки Кубок мира 2017-2018. 1-й Этап. Рука (Финляндия). Спринт. Классический стиль (24.11.2017) HDTVRip [H.264 / 720p-LQ] [hand made 50fps]


    • Комментарии (0):

      Информация

      Информация

        Посетители, находящиеся в группе Гости, не могут оставлять комментарии в данной новости.

        ↓ Меню




        ↓ Опрос

        Вы добавили сайт в закладки?
        Да
        Нет


        Top 10 за месяц (Передачи)