.
Авторизация | Регистрация
Хочешь лучшие торренты? Добавь свой email!
Добавить

Торрент скачать бесплатно

» » Cкелетон. Кубок мира 2017-2018. 3-й Этап. Уистлер (Канада). Женщины (24.11.2017) WEB-DL торрент скачать бесплатно




    Cкелетон. Кубок мира 2017-2018. 3-й Этап. Уистлер (Канада). Женщины (24.11.2017) WEB-DL торрент скачать бесплатно

    Опубликовал: Админ | Дата: 28-11-2017, 05:00 | Просмотров: 0

    Телекомпания: Матч! Арена HD
    Жанр: Спорт
    Комментаторы: Матвей Вознесенский, Анна Макарова

    Описание
    24 ноября 2017 года, пятница. 21: 00 МСК
    Cкелетон. Кубок мира 2017-2018. 3-й Этап. Уистлер (Канада)
    Женщины. 1-я и 2-я попытка
    Стадион: Уистлер Слидинг Центр (Уистлер, Канада)
    Продолжительность: 01: 45: 15
    Качество видео: WEB-DL
    Язык озвучки: Русский
    Субтитры: отсутствуют
    Видео: AVC/H.264, 640x360, ~796 Kbps
    Аудио: AAC, 2 ch, ~128 Kbps

    Общее
    Уникальный идентификатор : 242124335210451335809079737855256926387 (0xB6277364009FBE2D83AB10ED2B2198B3)
    Полное имя : F: SPORTБобслей(24.11.2017)_IBSF WC 2017-2018.3st.Whistler(CAN).1. Womens Skeleton_360p.mkv
    Формат : Matroska
    Версия формата : Version 4/Version 2
    Размер файла : 697 Мбайт
    Продолжительность : 1 ч. 45 м.
    Общий поток : 927 Кбит/сек
    Дата кодирования : UTC 2017-11-27 07: 22: 53
    Программа кодирования : mkvmerge v18.0.0 (\'Apricity\') 32-bit
    Библиотека кодирования : libebml v1.3.5 + libmatroska v1.4.8
    Видео
    Идентификатор : 1
    Формат : AVC
    Формат/Информация : Advanced Video Codec
    Профиль формата : Baseline@L3.1
    Настройки формата : 3 Ref Frames
    Параметр CABAC формата : Нет
    Параметр RefFrames формата : 3 кадра
    Идентификатор кодека : V_MPEG4/ISO/AVC
    Продолжительность : 1 ч. 45 м.
    Битрейт : 796 Кбит/сек
    Ширина : 640 пикселей
    Высота : 360 пикселей
    Соотношение сторон : 16: 9
    Режим частоты кадров : Постоянный
    Частота кадров : 25, 000 кадров/сек
    Цветовое пространство : YUV
    Субдискретизация насыщенности : 4: 2: 0
    Битовая глубина : 8 бит
    Тип развёртки : Прогрессивная
    Бит/(Пиксели*Кадры) : 0.138
    Размер потока : 599 Мбайт (86%)
    Default : Да
    Forced : Нет
    Аудио
    Идентификатор : 2
    Формат : AAC
    Формат/Информация : Advanced Audio Codec
    Профиль формата : LC
    Идентификатор кодека : A_AAC-2
    Продолжительность : 1 ч. 45 м.
    Битрейт : 128 Кбит/сек
    Каналы : 2 канала
    Расположение каналов : Front: L R
    Частота : 44, 1 КГц
    Частота кадров : 43, 066 кадра/сек (1024 SPF)
    Метод сжатия : С потерями
    Размер потока : 96, 4 Мбайт (14%)
    Язык : Russian
    Default : Да
    Forced : Нет

    Скриншоты для ознакомления



    Все одноименные релизы в Клубе
    Время раздачи: 24/7 (Около 1 месяца)


    Cкелетон. Кубок мира 2017-2018. 3-й Этап. Уистлер (Канада). Женщины (24.11.2017) WEB-DL
    загрузка...
    Рейтинг →
     (голосов: 1, оценка 5/5, голосовать можно 1 раз )

    Другие торренты по теме:

  • Cкелетон. Кубок мира 2016-2017. 1-й Этап. Уистлер (Канадa). Мужчины. 1-я и 2-я попытка (03.12.2016) WEB-DL [H.264 / 720p-LQ]
  • Cкелетон. Кубок мира 2016-2017. 1-й Этап. Уистлер (Канадa). Женщины. 1-я и 2-я попытка (02.12.2016) WEB-DL [H.264 / 720p-LQ]
  • Cкелетон. Кубок мира 2016-2017. 7-й Этап. Иглс (Австрия). Мужчины (03.02.2017) IPTV [H.264 / 720p-LQ]
  • Cкелетон. Кубок мира 2016-2017. 7-й Этап. Иглс (Австрия). Женщины (03.02.2017) IPTV [H.264 / 720p-LQ]
  • Cкелетон. Кубок мира 2016-2017. 8-й Этап. Пхёнчхан (Корея). Женщины, Мужчины (17.03.2017) IPTV [H.264 / 720p-LQ]
  • Cкелетон. Кубок мира 2017-2018. 1-й Этап. Лейк-Плэсид (США). Женщины (09.11.2017) WEB-DL [H.264 / 1080p-LQ] [EN]
  • Cкелетон. Кубок мира 2017-2018. 1-й Этап. Лейк-Плэсид (США). Мужчины (10.11.2017) WEB-DL [H.264 / 1080p-LQ] [EN]
  • Cкелетон. Кубок мира 2017-2018. 2-й Этап. Парк-Сити (США). Мужчины (18.11.2017) WEB-DL [H.264 / 1080p-LQ] [EN]


    • Комментарии (0):

      Информация

      Информация

        Посетители, находящиеся в группе Гости, не могут оставлять комментарии в данной новости.

        ↓ Меню




        ↓ Опрос

        Вы добавили сайт в закладки?
        Да
        Нет


        Top 10 за месяц (Передачи)