.
Авторизация | Регистрация
Хочешь лучшие торренты? Добавь свой email!
Добавить

Торрент скачать бесплатно

» » Бобслей. Кубок мира 2017-2018. 3-й Этап. Уистлер (Канада). Мужчины. Двойки (24.11.2017) WEB-DL торрент скачать бесплатно




    Бобслей. Кубок мира 2017-2018. 3-й Этап. Уистлер (Канада). Мужчины. Двойки (24.11.2017) WEB-DL торрент скачать бесплатно

    Опубликовал: Админ | Дата: 28-11-2017, 05:00 | Просмотров: 0

    Телекомпания: Матч! Планета
    Жанр: Спорт
    Комментаторы: Сергей Дерябкин, Анна Макарова

    Описание
    25 ноября 2017 года, суббота. 02: 00 МСК
    Бобслей. Кубок мира 2017-2018. 3-й Этап. Уистлер (Канада)
    Мужчины. Двойки. 1-я и 2-я попытка
    Стадион: Уистлер Слидинг Центр (Уистлер, Канада)
    Продолжительность: 01: 51: 48
    Качество видео: WEB-DL
    Язык озвучки: Русский
    Субтитры: отсутствуют
    Видео: AVC/H.264, 640x360 (16: 9), ~835 Kbps
    Аудио: AAC, 2 ch, ~128 Kbps

    Общее
    Уникальный идентификатор : 243309040699520991622938852098693142368 (0xB70B9DE183CF50A48B89875471941760)
    Полное имя : F: SPORTБобслей(24.11.2017)_IBSF WC 2017-2018.3st.Whistler(CAN).2. 2-Man Bobsleigh_360p.mkv
    Формат : Matroska
    Версия формата : Version 4/Version 2
    Размер файла : 772 Мбайт
    Продолжительность : 1 ч. 51 м.
    Общий поток : 965 Кбит/сек
    Дата кодирования : UTC 2017-11-27 09: 04: 14
    Программа кодирования : mkvmerge v18.0.0 (\'Apricity\') 32-bit
    Библиотека кодирования : libebml v1.3.5 + libmatroska v1.4.8
    Видео
    Идентификатор : 1
    Формат : AVC
    Формат/Информация : Advanced Video Codec
    Профиль формата : Baseline@L3.1
    Настройки формата : 3 Ref Frames
    Параметр CABAC формата : Нет
    Параметр RefFrames формата : 3 кадра
    Идентификатор кодека : V_MPEG4/ISO/AVC
    Продолжительность : 1 ч. 51 м.
    Битрейт : 835 Кбит/сек
    Ширина : 640 пикселей
    Высота : 360 пикселей
    Соотношение сторон : 16: 9
    Режим частоты кадров : Постоянный
    Частота кадров : 25, 000 кадров/сек
    Цветовое пространство : YUV
    Субдискретизация насыщенности : 4: 2: 0
    Битовая глубина : 8 бит
    Тип развёртки : Прогрессивная
    Бит/(Пиксели*Кадры) : 0.145
    Размер потока : 668 Мбайт (86%)
    Default : Да
    Forced : Нет
    Аудио
    Идентификатор : 2
    Формат : AAC
    Формат/Информация : Advanced Audio Codec
    Профиль формата : LC
    Идентификатор кодека : A_AAC-2
    Продолжительность : 1 ч. 51 м.
    Битрейт : 128 Кбит/сек
    Каналы : 2 канала
    Расположение каналов : Front: L R
    Частота : 44, 1 КГц
    Частота кадров : 43, 066 кадра/сек (1024 SPF)
    Метод сжатия : С потерями
    Размер потока : 102 Мбайт (13%)
    Язык : Russian
    Default : Да
    Forced : Нет

    Скриншоты для ознакомления



    Все одноименные релизы в Клубе
    Время раздачи: 24/7 (Около 1 месяца)


    Бобслей. Кубок мира 2017-2018. 3-й Этап. Уистлер (Канада). Мужчины. Двойки (24.11.2017) WEB-DL
    загрузка...
    Рейтинг →
     (голосов: 1, оценка 3/5, голосовать можно 1 раз )

    Другие торренты по теме:

  • Бобслей. Кубок мира 2016-2017. 1-й Этап. Уистлер (Канадa). Мужчины. Четверки. 1-я и 2-я попытка (03.12.2016) WEB-DL [H.264 / 720p-LQ]
  • Бобслей. Кубок мира 2016-2017. 1-й Этап. Уистлер (Канадa). Женщины. 1-я и 2-я попытка (03.12.2016) WEB-DL [H.264 / 720p-LQ]
  • Бобслей. Кубок мира 2016-2017. 1-й Этап. Уистлер (Канадa). Мужчины. Двойки. 1-я и 2-я попытка (02.12.2016) WEB-DL [H.264 / 720p-LQ]
  • Бобслей. Кубок мира 2016-2017. 7-й Этап. Иглс (Австрия). Мужчины. Четверки (05.02.2017) WEB-DL [H.264 / 720p-LQ]
  • Бобслей. Кубок мира 2016-2017. 7-й Этап. Иглс (Австрия). Женщины. Двойки 2-я попытка (04.02.2017) WEB-DL [H.264 / 720p-LQ]
  • Бобслей. Кубок мира 2016-2017. 7-й Этап. Иглс (Австрия). Женщины. Двойки 1-я попытка (04.02.2017) WEB-DL [H.264 / 1080p-LQ][EN]
  • Бобслей. Кубок мира 2016-2017. 7-й Этап. Иглс (Австрия). Мужчины. Двойки (04.02.2017) WEB-DL [H.264 / 720p-LQ]
  • Бобслей. Кубок мира 2016-2017. 8-й Этап. Пхёнчхан (Корея). Женщины, Мужчины. Двойки (18.03.2017) IPTV [H.264 / 720p-LQ]


    • Комментарии (0):

      Информация

      Информация

        Посетители, находящиеся в группе Гости, не могут оставлять комментарии в данной новости.

        ↓ Меню




        ↓ Опрос

        Вы добавили сайт в закладки?
        Да
        Нет


        Top 10 за месяц (Передачи)