.
Авторизация | Регистрация
Хочешь лучшие торренты? Добавь свой email!
Добавить

Торрент скачать бесплатно

» » Малая земля (2017) WEBRip [H.264 / 1080p-LQ] (выпуски 1-6 из ) (обновляемая) торрент скачать бесплатно




    Малая земля (2017) WEBRip [H.264 / 1080p-LQ] (выпуски 1-6 из ) (обновляемая) торрент скачать бесплатно

    Опубликовал: Админ | Дата: 28-11-2017, 05:00 | Просмотров: 0

    Производство: Россия,
    Жанр: Документальный, биография
    Режиссер: Алексей Аленин
    Ведущий: Сергей Майоров, Любовь Камырина

    Описание

    Малая земля —авторский проект известного журналиста, многократного лауреата национальной телевизионной премии ТЭФИ Это телевизионный документальный цикл, каждый эпизод которого заключает в себе остросюжетное и эмоциональное путешествие в прошлое, где берет начало по-своему уникальная биография каждого из героев. Впервые самые известные и самые популярные артисты, актеры, телеведущие и спортсмены позволят заглянуть туда, куда никого не пускали, и покажут свою малую землю такой, какой ее не знает больше никто. Проект предоставит каждому уникальную возможность побывать в гостях у прошлого, вернуться в детство своих кумиров.
    Релиз от: Алехаndr
    Продолжительность: ~00: 46: 00 выпуск
    Качество видео: WEBRip
    Видео: AVC/H.264, 1920x1080 (16: 9), ~2175 Kbps
    Аудио: AC3, 2 ch, 192 Kbps

    Общее
    Уникальный идентификатор : 143013839182077225363778969101555792553 (0x6B9776AA2E4ED464EC6A42DC6FA8FAA9)
    Полное имя : D: Малая земля (2017).by.АлехаndrВыпуск 01.by.Алехаndr.mkv
    Формат : Matroska
    Версия формата : Version 4/Version 2
    Размер файла : 790 Мбайт
    Продолжительность : 45 м. 45 с.
    Общий поток : 2414 Кбит/сек
    Программа кодирования : Lavf57.71.100
    Библиотека кодирования : Lavf57.71.100
    ErrorDetectionType : Per level 1
    Видео
    Идентификатор : 1
    Формат : AVC
    Формат/Информация : Advanced Video Codec
    Профиль формата : High@L4
    Настройки формата : CABAC/3 Ref Frames
    Параметр CABAC формата : Да
    Параметр RefFrames формата : 3 кадра
    Идентификатор кодека : V_MPEG4/ISO/AVC
    Продолжительность : 45 м. 45 с.
    Битрейт : 2174 Кбит/сек
    Ширина : 1920 пикселей
    Высота : 1080 пикселей
    Соотношение сторон : 16: 9
    Режим частоты кадров : Постоянный
    Частота кадров : 25, 000 кадров/сек
    Цветовое пространство : YUV
    Субдискретизация насыщенности : 4: 2: 0
    Битовая глубина : 8 бит
    Тип развёртки : Прогрессивная
    Бит/(Пиксели*Кадры) : 0.042
    Размер потока : 712 Мбайт (90%)
    Default : Да
    Forced : Нет
    Цветовой диапазон : Limited
    Основные цвета : BT.709
    Характеристики трансфера : BT.709
    Коэффициенты матрицы : BT.709
    Аудио
    Идентификатор : 2
    Формат : AC-3
    Формат/Информация : Audio Coding 3
    Идентификатор кодека : A_AC3
    Продолжительность : 45 м. 45 с.
    Вид битрейта : Постоянный
    Битрейт : 192 Кбит/сек
    Каналы : 2 канала
    Расположение каналов : Front: L R
    Частота : 44, 1 КГц
    Частота кадров : 28, 711 кадров/сек (1536 SPF)
    Битовая глубина : 16 бит
    Метод сжатия : С потерями
    Задержка видео : -40 мс.
    Размер потока : 62, 8 Мбайт (8%)
    Язык : unknown
    ServiceKind/String : Complete Main
    Default : Да
    Forced : Нет


    Малая земля (2017) WEBRip [H.264/1080p-LQ] (выпуски 1-6 из ) (обновляемая)
    загрузка...
    Рейтинг →
     (голосов: 1, оценка 3/5, голосовать можно 1 раз )

    Другие торренты по теме:

  • Малая земля генерала Белова (2005) DVB


    • Комментарии (0):

      Информация

      Информация

        Посетители, находящиеся в группе Гости, не могут оставлять комментарии в данной новости.

        ↓ Меню




        ↓ Опрос

        Вы добавили сайт в закладки?
        Да
        Нет


        Top 10 за месяц (Передачи)