.
Авторизация | Регистрация
Хочешь лучшие торренты? Добавь свой email!
Добавить

Торрент скачать бесплатно

» » Действующие лица с Наилей Аскер-заде. Рамзан Кадыров (26.11.2017) HDTV [H.264 / 1080i-LQ] торрент скачать бесплатно




    Действующие лица с Наилей Аскер-заде. Рамзан Кадыров (26.11.2017) HDTV [H.264 / 1080i-LQ] торрент скачать бесплатно

    Опубликовал: Админ | Дата: 28-11-2017, 05:00 | Просмотров: 1

    Телекомпания: Россия 1 HD
    Жанр: Документальный, авторская передача

    Описание

    Программа Действующие лица с Наилей Аскер-заде состоит из откровенных интервью известных российских политиков и бизнесменов, оказывающих ключевое влияние на жизнь миллионов людей. В разговоре с экономическим обозревателем программы Вести, они признаются в маленьких человеческих слабостях, расскажут о своих увлечениях и страхах.
    Героем выпуска стал российский политический деятель и глава Чеченской республики Рамзан Кадыров.
    Продолжительность: 00: 44: 28
    Качество видео: HDTV
    Видео: AVC/H.264, 1920x1080 (16: 9), ~6900 Kbps
    Аудио: AAC, 2 ch, 494 Kbps

    General
    Unique ID : 182801650566332289934306539618858862365 (0x89865138AA9B430FB79B1B440922871D)
    Complete name : D: FilmДействующие лица с Наилей Аскер-заде. Рамзан Кадыров.mkv
    Format : Matroska
    Format version : Version 4/Version 2
    File size : 2.28 GiB
    Duration : 44 min 28 s
    Overall bit rate : 7 350 kb/s
    Encoded date : UTC 2017-11-27 12: 40: 58
    Writing application : mkvmerge v18.0.0 (\'Apricity\') 64-bit
    Writing library : libebml v1.3.5 + libmatroska v1.4.8
    Cover : Yes
    Attachments : cover.png
    Video
    ID : 1
    Format : AVC
    Format/Info : Advanced Video Codec
    Format profile : High@L4
    Format settings : CABAC/4 Ref Frames
    Format settings, CABAC : Yes
    Format settings, RefFrames : 4 frames
    Codec ID : V_MPEG4/ISO/AVC
    Duration : 44 min 28 s
    Bit rate : 6 852 kb/s
    Width : 1 920 pixels
    Height : 1 080 pixels
    Display aspect ratio : 16: 9
    Frame rate mode : Variable
    Frame rate : 48.474 FPS
    Original frame rate : 25.000 FPS
    Standard : Component
    Color space : YUV
    Chroma subsampling : 4: 2: 0
    Bit depth : 8 bits
    Scan type : Interlaced
    Scan type, store method : Separated fields
    Scan order : Top Field First
    Bits/(Pixel*Frame) : 0.068
    Stream size : 2.13 GiB (93%)
    Language : Russian
    Default : Yes
    Forced : No
    Color range : Limited
    Color primaries : BT.709
    Transfer characteristics : BT.709
    Matrix coefficients : BT.709
    Audio
    ID : 2
    Format : AAC
    Format/Info : Advanced Audio Codec
    Format profile : LC
    Codec ID : A_AAC-2
    Duration : 44 min 28 s
    Bit rate : 494 kb/s
    Channel(s) : 2 channels
    Channel positions : Front: L R
    Sampling rate : 44.1 kHz
    Frame rate : 43.066 FPS (1024 SPF)
    Compression mode : Lossy
    Delay relative to video : 94 ms
    Stream size : 157 MiB (7%)
    Language : Russian
    Default : Yes
    Forced : No

    Скриншоты для ознакомления














    Все одноименные релизы в Клубе
    Время раздачи: 07: 00-23: 00 (до появления первых 3-5 скачавших)


    Действующие лица с Наилей Аскер-заде. Рамзан Кадыров (26.11.2017) HDTV [H.264/1080i-LQ]
    загрузка...
    Рейтинг →
     (голосов: 1, оценка 5/5, голосовать можно 1 раз )

    Другие торренты по теме:



      Комментарии (0):

      Информация

      Информация

        Посетители, находящиеся в группе Гости, не могут оставлять комментарии в данной новости.

        ↓ Меню




        ↓ Опрос

        Вы добавили сайт в закладки?
        Да
        Нет


        Top 10 за месяц (Передачи)