.
Авторизация | Регистрация
Хочешь лучшие торренты? Добавь свой email!
Добавить

Торрент скачать бесплатно

» » Где логика (2017.11.27) SATRip (сезон 5, выпуск 16) торрент скачать бесплатно




    Где логика (2017.11.27) SATRip (сезон 5, выпуск 16) торрент скачать бесплатно

    Опубликовал: Админ | Дата: 28-11-2017, 05:00 | Просмотров: 0

    Телекомпания: ТНТ
    Жанр: ТВ-Шоу
    Ведущие: Азамат Мусагалиев

    Описание

    Звездные семейные пары, партнеры по съемочной площадке, просто хорошие друзья и знакомые будут вместе пытаться выстраивать логические связи между самыми, казалось бы, нелогичными событиями, предметами или фактами. Почему мы оставляем официантам на чай, но не оставляем врачам на бинты? Для чего нам мизинцы на ногах? Зачем мыть машину в ноябре? Почему существует сухое вино, но вы нигде не найдете мокрого? Правильного, однозначного ответа на эти вопросы попросту не существует. Поэтому решать, кто из пар был наиболее логичен в своих рассуждениях, будет ведущий шоу Азамат Мусагалиев. Его задача не только определить победителя, но и помочь паре выстроить логическую цепочку. Новую программу ТНТ невозможно подвести ни под один существующий формат. Это и викторина, и интеллектуальный конкурс, и даже в чем-то стендап-камеди. Но самая большая ценность нового проекта состоит в том, что играть в него могут не только непосредственные участники программы, но и зрители ТНТ у экранов телевизоров.
    Продолжительность: 00: 47: 47
    Качество видео: SATRip
    Субтитры: Отсутствуют
    Реклама: Присутствуют вставки текстовой рекламы
    Видео: MPEG4, XviD, 720x400 (16: 9), 25.000 fps, 1 800 Kbps (0.250 bit/pixel)
    Аудио: MP3, 48.0 KHz, 2 ch, 128 Kbps, CBR
    Код: выделить все
    Общее
    Полное имя : D:[1]Где логикаГде логика. Сезон 5. Выпуск 16 (2017.11.27).avi
    Формат : AVI
    Формат/Информация : Audio Video Interleave
    Размер файла : 662 Мбайт
    Продолжительность : 47 м.
    Общий поток : 1938 Кбит/сек
    Программа кодирования : VirtualDubMod 1.5.10.3 |www.virtualdub-fr.org|| (build 2550/release)
    Библиотека кодирования : VirtualDubMod build 2550/release
    Видео
    Идентификатор : 0
    Формат : MPEG-4 Visual
    Профиль формата : Advanced Simple@L5
    Параметр BVOP формата : 2
    Параметр QPel формата : Нет
    Параметр GMC формата : Без точки перехода
    Параметр матрицы формата : Default (H.263)
    Идентификатор кодека : XVID
    Идентификатор кодека/Подсказка : XviD
    Продолжительность : 47 м.
    Битрейт : 1800 Кбит/сек
    Ширина : 720 пикселей
    Высота : 400 пикселей
    Соотношение сторон : 16:9
    Частота кадров : 25, 000 кадров/сек
    Цветовое пространство : YUV
    Субдискретизация насыщенности : 4:2:0
    Битовая глубина : 8 бит
    Тип развёртки : Прогрессивная
    Метод сжатия : С потерями
    Бит/(Пиксели*Кадры) : 0.250
    Размер потока : 615 Мбайт (93%)
    Библиотека кодирования : XviD 1.2.1 (UTC 2008-12-04)
    Аудио
    Идентификатор : 1
    Формат : MPEG Audio
    Версия формата : Version 1
    Профиль формата : Layer 3
    Режим : Joint stereo
    Расширение режима : MS Stereo
    Идентификатор кодека : 55
    Идентификатор кодека/Подсказка : MP3
    Продолжительность : 47 м.
    Вид битрейта : Постоянный
    Битрейт : 128 Кбит/сек
    Каналы : 2 канала
    Частота : 48, 0 КГц
    Метод сжатия : С потерями
    Размер потока : 43, 8 Мбайт (7%)
    Выравнивание : Соединение по промежуткам
    Продолжительность промежутка : 40 мс. (1, 00 видеокадр)
    Время предзагрузки промежутка : 504 мс.
    Библиотека кодирования : LAME3.99r
    Настройки программы : -m j -V 4 -q 9 -lowpass 17 -b 128

    Скриншоты для ознакомления



    Все одноименные релизы в Клубе
    Время раздачи: 24/7. До первых 5 скачавших.


    Где логика (2017.11.27) SATRip (сезон 5, выпуск 16)
    загрузка...
    Рейтинг →
     (голосов: 1, оценка 4/5, голосовать можно 1 раз )

    Другие торренты по теме:

  • Право голоса. Украина. Логика войны Часть 1 (03.02.2015) SATRip
  • Право голоса. Украина. Логика войны Часть 2 (04.02.2015) SATRip
  • Где логика Выпуск 1 (2015.11.29) SATRip скачать через торрент бесплатно
  • Где логика Выпуск 2 (2015.12.06) SATRip скачать через торрент бесплатно
  • Где логика Выпуск 3 (2015.12.13) SATRip скачать через торрент бесплатно
  • Где логика Выпуск 4 (2015.12.20) SATRip скачать через торрент бесплатно
  • Где логика Выпуск 5 (2015.12.27) SATRip скачать через торрент бесплатно
  • Где логика Выпуск 6 (2015.12.31) SATRip скачать через торрент бесплатно


    • Комментарии (0):

      Информация

      Информация

        Посетители, находящиеся в группе Гости, не могут оставлять комментарии в данной новости.

        ↓ Меню




        ↓ Опрос

        Вы добавили сайт в закладки?
        Да
        Нет


        Top 10 за месяц (Передачи)