.
Авторизация | Регистрация
Хочешь лучшие торренты? Добавь свой email!
Добавить

Торрент скачать бесплатно

» » Формула 1. Гран-при Абу-Даби 2017. 20-й Этап. Квалификация (25.11.2017) HDTV [H.264 / 1080i] торрент скачать бесплатно




    Формула 1. Гран-при Абу-Даби 2017. 20-й Этап. Квалификация (25.11.2017) HDTV [H.264 / 1080i] торрент скачать бесплатно

    Опубликовал: Админ | Дата: 27-11-2017, 05:00 | Просмотров: 0

    Телекомпания: Россия, Матч HD
    Жанр: Спорт
    Комментаторы: Алексей Попов, Наталья Фабричнова

    Описание

    В ноябре на острове Яс проходит последний этап чемпионата мира по автогонкам Формулы-1. Даже если ты не поклонник подобных развлечений, на таком мероприятии стоит побывать хотя бы раз в жизни.
    От всех остальных трасс Марина Яс отличается в первую очередь самым протяжённым прямым участком. Часть трассы проходит рядом с побережьем, поэтому наблюдать за гонкой можно даже с борта яхты.
    На 5, 55 километровой трассе возможно развить скорость до 320 км/час. Это единственные гонки Формулы-1, которые начинаются днём и заканчиваются ночью.улучшается.

    Продолжительность: 00: 58: 46
    Качество видео: HDTV
    Язык озвучки: Русский, Интершум
    Субтитры: Русские (Вшитые, отключаемые)
    Видео: AVC/H.264, 1920x1080, ~9900 Kbps
    Аудио #1: MP2, 2 ch, 192 Kbps | Русский
    Аудио #2: MP2, 2 ch, 192 Kbps | Интершум

    General
    ID : 1 (0x1)
    Complete name : F: F1.Round.20.Abu.Dhabi.Grand.Prix.2017.Qualifying.HDTV.1080i.ts
    Format : MPEG-TS
    File size : 4.36 GiB
    Duration : 58 min 46 s
    Overall bit rate mode : Variable
    Overall bit rate : 10.6 Mb/s
    Video
    ID : 204 (0xCC)
    Menu ID : 2204 (0x89C)
    Format : AVC
    Format/Info : Advanced Video Codec
    Format profile : High@L4
    Format settings, CABAC : Yes
    Format settings, RefFrames : 4 frames
    Codec ID : 27
    Duration : 58 min 46 s
    Bit rate : 9 701 kb/s
    Width : 1 920 pixels
    Height : 1 080 pixels
    Display aspect ratio : 16: 9
    Frame rate : 25.000 FPS
    Standard : Component
    Color space : YUV
    Chroma subsampling : 4: 2: 0
    Bit depth : 8 bits
    Scan type : Interlaced
    Scan type, store method : Separated fields
    Scan order : Top Field First
    Bits/(Pixel*Frame) : 0.187
    Stream size : 3.98 GiB (91%)
    Color range : Limited
    Color primaries : BT.709
    Transfer characteristics : BT.709
    Matrix coefficients : BT.709
    Audio #1
    ID : 304 (0x130)
    Menu ID : 2204 (0x89C)
    Format : MPEG Audio
    Format version : Version 1
    Format profile : Layer 2
    Codec ID : 3
    Duration : 58 min 46 s
    Bit rate mode : Constant
    Bit rate : 192 kb/s
    Channel(s) : 2 channels
    Sampling rate : 48.0 kHz
    Compression mode : Lossy
    Delay relative to video : -40 ms
    Stream size : 80.7 MiB (2%)
    Language : Russian
    Audio #2
    ID : 305 (0x131)
    Menu ID : 2204 (0x89C)
    Format : MPEG Audio
    Format version : Version 1
    Format profile : Layer 2
    Codec ID : 3
    Duration : 58 min 46 s
    Bit rate mode : Constant
    Bit rate : 192 kb/s
    Channel(s) : 2 channels
    Sampling rate : 48.0 kHz
    Compression mode : Lossy
    Delay relative to video : -40 ms
    Stream size : 80.7 MiB (2%)
    Text
    ID : 306 (0x132)-888
    Menu ID : 2204 (0x89C)
    Format : Teletext Subtitle
    Language : Russian
    Language, more info : For hearing impaired people

    Скриншоты для ознакомления



    Все одноименные релизы в Клубе
    Время раздачи: до 3-х скачавших, далее по возможности. (до появления первых 3-5 скачавших)


    Формула 1. Гран-при Абу-Даби 2017. 20-й Этап. Квалификация (25.11.2017) HDTV [H.264/1080i]
    загрузка...
    Рейтинг →
     (голосов: 1, оценка 4/5, голосовать можно 1 раз )

    Другие торренты по теме:

  • Формула 1. Гран-При Сингапура. Гонка (2014) HDTVRip [H.264 / 720p] [hand made 50fps]
  • Формула 1. Гран-При Японии. Гонка (2014) HDTVRip [H.264 / 720p] [hand made 50fps] скачать через торрент бесплатно
  • Формула 1. Гран-При России. Квалификация (2014) HDTVRip [H.264 / 720p] [hand made 50fps] скачать через торрент бесплатно
  • Формула 1. Гран-При России. Гонка (2014) HDTVRip [H.264 / 720p] [hand made 50fps] скачать через торрент бесплатно
  • Формула 1. Гран-При России. Гонка (2014) HDTVRip [H.264] скачать через торрент бесплатно
  • Формула 1. Гран-При США. Квалификация (2014) HDTVRip [H.264]
  • Формула 1. Гран-При США. Гонка (2014) HDTVRip [H.264 / 720p] [hand made 50fps] скачать через торрент бесплатно
  • Формула 1. Гран-При Бразилии. Квалификация (2014) HDTVRip [H.264] скачать через торрент бесплатно


    • Комментарии (0):

      Информация

      Информация

        Посетители, находящиеся в группе Гости, не могут оставлять комментарии в данной новости.

        ↓ Меню




        ↓ Опрос

        Вы добавили сайт в закладки?
        Да
        Нет


        Top 10 за месяц (Передачи)