.
Авторизация | Регистрация
Хочешь лучшие торренты? Добавь свой email!
Добавить

Торрент скачать бесплатно

» » Формула 1. Гран-при Абу-Даби 2017. 20-й Этап. Квалификация (25.11.2017) HDTVRip [H.264 / 720p-LQ] [hand made 50fps] торрент скачать бесплатно




    Формула 1. Гран-при Абу-Даби 2017. 20-й Этап. Квалификация (25.11.2017) HDTVRip [H.264 / 720p-LQ] [hand made 50fps] торрент скачать бесплатно

    Опубликовал: Админ | Дата: 27-11-2017, 05:00 | Просмотров: 0

    Телекомпания: Россия, Матч HD
    Жанр: Спорт
    Комментаторы: Алексей Попов, Наталья Фабричнова

    Описание

    В ноябре на острове Яс проходит последний этап чемпионата мира по автогонкам Формулы-1. Даже если ты не поклонник подобных развлечений, на таком мероприятии стоит побывать хотя бы раз в жизни.
    От всех остальных трасс Марина Яс отличается в первую очередь самым протяжённым прямым участком. Часть трассы проходит рядом с побережьем, поэтому наблюдать за гонкой можно даже с борта яхты.
    На 5, 55 километровой трассе возможно развить скорость до 320 км/час. Это единственные гонки Формулы-1, которые начинаются днём и заканчиваются ночью.улучшается.

    Продолжительность: 00: 58: 46
    Качество видео: HDTVRip
    Язык озвучки: Русский
    Видео: AVC/H.264, 1280x720, ~ 4000 Kbps
    Аудио: AC3, 2 ch, 192 Kbps

    General
    Unique ID : 240066503660719796554138534482273427996 (0xB49B207641B1DCAC912A1BAE33F4E21C)
    Complete name : F: F1.Round.20.Abu.Dhabi.Grand.Prix.2017.Qualifying.HDTVRip.720p.mkv
    Format : Matroska
    Format version : Version 4/Version 2
    File size : 1.75 GiB
    Duration : 58 min 47 s
    Overall bit rate : 4 266 kb/s
    Encoded date : UTC 2017-11-25 14: 45: 13
    Writing application : mkvmerge v10.0.0 (\'To Drown In You\') 32bit
    Writing library : libebml v1.3.4 + libmatroska v1.4.5/Lavf54.63.104
    Video
    ID : 1
    Format : AVC
    Format/Info : Advanced Video Codec
    Format profile : High@L4.1
    Format settings, CABAC : Yes
    Format settings, RefFrames : 4 frames
    Codec ID : V_MPEG4/ISO/AVC
    Duration : 58 min 47 s
    Bit rate : 4 071 kb/s
    Width : 1 280 pixels
    Height : 720 pixels
    Display aspect ratio : 16: 9
    Frame rate mode : Constant
    Frame rate : 50.000 FPS
    Color space : YUV
    Chroma subsampling : 4: 2: 0
    Bit depth : 8 bits
    Scan type : Progressive
    Bits/(Pixel*Frame) : 0.088
    Stream size : 1.67 GiB (95%)
    Default : No
    Forced : No
    Color range : Limited
    Color primaries : BT.709
    Transfer characteristics : BT.709
    Matrix coefficients : BT.709
    Audio
    ID : 2
    Format : AC-3
    Format/Info : Audio Coding 3
    Format settings, Endianness : Big
    Codec ID : A_AC3
    Duration : 58 min 47 s
    Bit rate mode : Constant
    Bit rate : 192 kb/s
    Channel(s) : 2 channels
    Channel positions : Front: L R
    Sampling rate : 48.0 kHz
    Frame rate : 31.250 FPS (1536 SPF)
    Bit depth : 16 bits
    Compression mode : Lossy
    Stream size : 80.7 MiB (5%)
    Language : Russian
    Service kind : Complete Main
    Default : Yes
    Forced : No

    Скриншоты для ознакомления



    Все одноименные релизы в Клубе
    Время раздачи: до 3-х скачавших, далее по возможности. (до появления первых 3-5 скачавших)


    Формула 1. Гран-при Абу-Даби 2017. 20-й Этап. Квалификация (25.11.2017) HDTVRip [H.264/720p-LQ] [hand made 50fps]
    загрузка...
    Рейтинг →
     (голосов: 1, оценка 5/5, голосовать можно 1 раз )

    Другие торренты по теме:

  • Формула 1. Гран-При Сингапура. Гонка (2014) HDTVRip [H.264 / 720p] [hand made 50fps]
  • Формула 1. Гран-При Японии. Гонка (2014) HDTVRip [H.264 / 720p] [hand made 50fps] скачать через торрент бесплатно
  • Формула 1. Гран-При России. Квалификация (2014) HDTVRip [H.264 / 720p] [hand made 50fps] скачать через торрент бесплатно
  • Формула 1. Гран-При России. Гонка (2014) HDTVRip [H.264 / 720p] [hand made 50fps] скачать через торрент бесплатно
  • Формула 1. Гран-При России. Гонка (2014) HDTVRip [H.264] скачать через торрент бесплатно
  • Формула 1. Гран-При США. Квалификация (2014) HDTVRip [H.264]
  • Формула 1. Гран-При США. Гонка (2014) HDTVRip [H.264 / 720p] [hand made 50fps] скачать через торрент бесплатно
  • Формула 1. Гран-При Бразилии. Квалификация (2014) HDTVRip [H.264] скачать через торрент бесплатно


    • Комментарии (0):

      Информация

      Информация

        Посетители, находящиеся в группе Гости, не могут оставлять комментарии в данной новости.

        ↓ Меню




        ↓ Опрос

        Вы добавили сайт в закладки?
        Да
        Нет


        Top 10 за месяц (Передачи)