.
Авторизация | Регистрация
Хочешь лучшие торренты? Добавь свой email!
Добавить

Торрент скачать бесплатно

» » Санный спорт. Кубок мира 2017-2018. Инсбрук (Австрия). 1-й Этап (18.11.2017-19.11.2017) IPTV [H.264 / 720p-LQ] торрент скачать бесплатно




    Санный спорт. Кубок мира 2017-2018. Инсбрук (Австрия). 1-й Этап (18.11.2017-19.11.2017) IPTV [H.264 / 720p-LQ] торрент скачать бесплатно

    Опубликовал: Админ | Дата: 27-11-2017, 05:00 | Просмотров: 0

    Телекомпания: Eurosport 1 HD
    Жанр: Спорт
    Комментатор: Андрей Голованов

    Описание
    18 ноября 2017 года - 19 ноября 2017 года
    Санный спорт. Кубок мира 2017-2018. 1-й Этап. Инсбрук/Иглс (Австрия)
    18.11.2017
    1. Женщины. 1-я и 2-я попытка
    2. Мужчины. Двойки. 1-я и 2-я попытка
    19.11.2017
    3. Мужчины. 1-я и 2-я попытка
    4. Эстафета
    Стадион: Олимпия-Эйсканал Инсбрук (Иглс, Австрия)
    Релиз от: ANDREY^2010
    Продолжительность: 01: 00: 34—02: 07: 57
    Качество видео: IPTV
    Язык озвучки: Русский, Английский
    Субтитры: отсутствуют
    Видео: AVC/H.264, 1280x720 (16: 9), ~3500 Kbps
    Аудио #1: AAC, 2 ch, 48 kHz, ~192 Kbps | Русский
    Аудио #2: AAC, 2 ch, 48 kHz, ~192 Kbps | Английский
    Код: выделить все

    Общее
    Уникальный идентификатор : 212400389093848796091919389446287333625 (0x9FCAD3B35B9F44129EEC800A1E3F18F9)
    Полное имя : F:SPORTБобслей(18-19.11.2017)_FIL World Cup 2017-2018. Innsbruck(AUT). 1-st Stage3. 19.11.2017_FIL World Cup 17-18.1.Innsbruck(AUT). Men.mkv
    Формат : Matroska
    Версия формата : Version 4/Version 2
    Размер файла : 3, 18 Гбайт
    Продолжительность : 2 ч. 7 м.
    Режим общего битрейта : Переменный
    Общий поток : 3559 Кбит/сек
    Дата кодирования : UTC 2017-11-25 10:57:43
    Программа кодирования : mkvmerge v18.0.0 (\'Apricity\') 32-bit
    Библиотека кодирования : libebml v1.3.5 + libmatroska v1.4.8
    Видео
    Идентификатор : 1
    Формат : AVC
    Формат/Информация : Advanced Video Codec
    Профиль формата :High@L3.1
    Настройки формата : CABAC/4 Ref Frames
    Параметр CABAC формата : Да
    Параметр RefFrames формата : 4 кадра
    Идентификатор кодека : V_MPEG4/ISO/AVC
    Продолжительность : 2 ч. 7 м.
    Вид битрейта : Переменный
    Битрейт : 3177 Кбит/сек
    Максимальный битрейт : 3500 Кбит/сек
    Ширина : 1280 пикселей
    Высота : 720 пикселей
    Соотношение сторон : 16:9
    Режим частоты кадров : Постоянный
    Частота кадров : 25, 000 кадров/сек
    Цветовое пространство : YUV
    Субдискретизация насыщенности : 4:2:0
    Битовая глубина : 8 бит
    Тип развёртки : Прогрессивная
    Бит/(Пиксели*Кадры) : 0.138
    Размер потока : 2, 84 Гбайт (89%)
    Default : Да
    Forced : Нет
    Аудио #1
    Идентификатор : 2
    Формат : AAC
    Формат/Информация : Advanced Audio Codec
    Профиль формата : LC
    Идентификатор кодека : A_AAC-2
    Продолжительность : 2 ч. 7 м.
    Битрейт : 192 Кбит/сек
    Каналы : 2 канала
    Расположение каналов : Front: L R
    Частота : 48, 0 КГц
    Частота кадров : 46, 875 кадров/сек (1024 SPF)
    Метод сжатия : С потерями
    Размер потока : 173 Мбайт (5%)
    Язык : Russian
    Default : Да
    Forced : Нет
    Аудио #2
    Идентификатор : 3
    Формат : AAC
    Формат/Информация : Advanced Audio Codec
    Профиль формата : LC
    Идентификатор кодека : A_AAC-2
    Продолжительность : 2 ч. 7 м.
    Битрейт : 192 Кбит/сек
    Каналы : 2 канала
    Расположение каналов : Front: L R
    Частота : 48, 0 КГц
    Частота кадров : 46, 875 кадров/сек (1024 SPF)
    Метод сжатия : С потерями
    Размер потока : 173 Мбайт (5%)
    Язык : English
    Default : Нет
    Forced : Нет

    Скриншоты для ознакомления



    Все одноименные релизы в Клубе
    Время раздачи: 24/7. (Около 1 месяца.)


    Санный спорт. Кубок мира 2017-2018. Инсбрук (Австрия). 1-й Этап (18.11.2017-19.11.2017) IPTV [H.264/720p-LQ]
    загрузка...
    Рейтинг →
     (голосов: 1, оценка 4/5, голосовать можно 1 раз )

    Другие торренты по теме:

  • Санный спорт. Кубок мира 2017-2018. Винтерберг (Германия). 2-й Этап (25.11.2017-26.11.2017) WEB-DL [H.264 / 720p-LQ] [EN]
  • Санный спорт. Кубок мира 2017-2018. Альтенберг (Германия). 3-й Этап (02.12.2017-03.12.2017) WEB-DL [H.264 / 720p-LQ] [EN]
  • Санный спорт. Кубок мира 2017-2018. Альтенберг (Германия). 3-й Этап (02.12.2017-03.12.2017) IPTV [H.264 / 720p-LQ]
  • Санный спорт. Кубок мира 2017-2018. 4-й Этап. Калгари (Канада). Двойки и Мужчины (08.12.2017) WEB-DL [H.264 / 720p-LQ] [EN]
  • Санный спорт. Кубок мира 2017-2018. 4-й Этап. Калгари (Канада). Женщины и Командная Эстафета (09.12.2017) IPTV [H.264 / 720p-LQ]


    • Комментарии (0):

      Информация

      Информация

        Посетители, находящиеся в группе Гости, не могут оставлять комментарии в данной новости.

        ↓ Меню




        ↓ Опрос

        Вы добавили сайт в закладки?
        Да
        Нет


        Top 10 за месяц (Передачи)