.
Авторизация | Регистрация
Хочешь лучшие торренты? Добавь свой email!
Добавить

Торрент скачать бесплатно

» » Конькобежный спорт. Кубок мира 2017-2018. 2-й Этап. Ставангер (Норвегия). 3-й день соревнований (19.11.2017) IPTV [H.264 / 1080p-LQ] торрент скачать бесплатно




    Конькобежный спорт. Кубок мира 2017-2018. 2-й Этап. Ставангер (Норвегия). 3-й день соревнований (19.11.2017) IPTV [H.264 / 1080p-LQ] торрент скачать бесплатно

    Опубликовал: Админ | Дата: 27-11-2017, 05:00 | Просмотров: 0

    Телекомпания: Матч! Арена HD
    Жанр: Спорт
    Комментаторы: Игорь Швецов, Варвара Барышева

    Описание
    19 ноября 2017, воскресенье
    Кубок мира 2017-2018. 2-й Этап. Ставангер (Норвегия)
    3-й день соревнований:
    1. Женщины - 5000 м
    2. Мужчины - 10000 м
    3. Женщины/Мужчины - Командный Спринт
    Стадион: Сермарк Арена (Ставангер, Норвегия)
    Релиз от: vobosha
    Продолжительность: 02: 47: 36
    Качество видео: IPTV
    Язык озвучки: Русский
    Субтитры: отсутствуют
    Видео: AVC/H.264, 1920x1080 (16: 9), ~4054 Kbps
    Аудио: AAC, 2 ch, 48 kHz, ~128 Kbps

    Общее
    Уникальный идентификатор : 181084254875257700830371144466720309255 (0x883B8F138E0040C88B5D84319FEF4007)
    Полное имя : F: SPORTКоньки(19.11.2017)_ISU 2st. WC 17-18 Speed Skating.Stavanger(NOR). Day 3.mkv
    Формат : Matroska
    Версия формата : Version 4/Version 2
    Размер файла : 4, 90 Гбайт
    Продолжительность : 2 ч. 47 м.
    Общий поток : 4184 Кбит/сек
    Дата кодирования : UTC 2017-11-26 01: 10: 52
    Программа кодирования : mkvmerge v18.0.0 (\'Apricity\') 32-bit
    Библиотека кодирования : libebml v1.3.5 + libmatroska v1.4.8
    Видео
    Идентификатор : 1
    Формат : AVC
    Формат/Информация : Advanced Video Codec
    Профиль формата : High@L4
    Настройки формата : CABAC/4 Ref Frames
    Параметр CABAC формата : Да
    Параметр RefFrames формата : 4 кадра
    Идентификатор кодека : V_MPEG4/ISO/AVC
    Продолжительность : 2 ч. 47 м.
    Битрейт : 4054 Кбит/сек
    Ширина : 1920 пикселей
    Высота : 1080 пикселей
    Соотношение сторон : 16: 9
    Режим частоты кадров : Постоянный
    Частота кадров : 24, 974 кадров/сек
    Частота кадров в оригинале : 25, 000 кадров/сек
    Стандарт вещания : Component
    Цветовое пространство : YUV
    Субдискретизация насыщенности : 4: 2: 0
    Битовая глубина : 8 бит
    Тип развёртки : Прогрессивная
    Бит/(Пиксели*Кадры) : 0.078
    Размер потока : 4, 75 Гбайт (97%)
    Default : Да
    Forced : Нет
    Цветовой диапазон : Limited
    Аудио
    Идентификатор : 2
    Формат : AAC
    Формат/Информация : Advanced Audio Codec
    Профиль формата : LC
    Идентификатор кодека : A_AAC-2
    Продолжительность : 2 ч. 47 м.
    Битрейт : 128 Кбит/сек
    Каналы : 2 канала
    Расположение каналов : Front: L R
    Частота : 48, 0 КГц
    Частота кадров : 46, 875 кадров/сек (1024 SPF)
    Метод сжатия : С потерями
    Размер потока : 153 Мбайт (3%)
    Язык : Russian
    Default : Да
    Forced : Нет

    Скриншоты для ознакомления



    Все одноименные релизы в Клубе
    Время раздачи: 24/7 (около 1 месяца)


    Конькобежный спорт. Кубок мира 2017-2018. 2-й Этап. Ставангер (Норвегия). 3-й день соревнований (19.11.2017) IPTV [H.264/1080p-LQ]
    загрузка...
    Рейтинг →
     (голосов: 1, оценка 4/5, голосовать можно 1 раз )

    Другие торренты по теме:

  • Конькобежный спорт. Кубок Мира 2016-2017. 1-й Этап. Харбин (Китай). 3-й день соревнований (13.11.2016) WEB-DL [H.264 / 720p-LQ]
  • Конькобежный спорт. Кубок Мира 2016-2017. 1-й Этап. Харбин (Китай). 2-й день соревнований (12.11.2016) WEB-DL [H.264 / 720p-LQ]
  • Конькобежный спорт. Кубок Мира 2016-2017. 1-й Этап. Харбин (Китай). 1-й день соревнований (11.11.2016) WEB-DL [H.264 / 720p-LQ]
  • Конькобежный спорт. Кубок Мира 2016-2017. 4-й Этап. Херенвен (Нидерланды). 3-й день соревнований (11.12.2016) IPTVRip [H.264 / 1080p-LQ]
  • Конькобежный спорт. Кубок Мира 2016-2017. 4-й Этап. Херенвен (Нидерланды). 2-й день соревнований (10.12.2016) WEB-DL [H.264 / 720p-LQ]
  • Конькобежный спорт. Кубок Мира 2016-2017. 4-й Этап. Херенвен (Нидерланды). 1-й день соревнований (09.12.2016) IPTVRip [H.264 / 1080p-LQ]
  • Конькобежный спорт. Кубок Мира 2016-2017. 3-й Этап. Астана (Казахстан). 3-й день соревнований (04.12.2016) IPTVRip [H.264 / 1080p-LQ]
  • Конькобежный спорт. Кубок Мира 2016-2017. 3-й Этап. Астана (Казахстан). 2-й день соревнований (03.12.2016) IPTVRip [H.264 / 1080p-LQ]


    • Комментарии (0):

      Информация

      Информация

        Посетители, находящиеся в группе Гости, не могут оставлять комментарии в данной новости.

        ↓ Меню




        ↓ Опрос

        Вы добавили сайт в закладки?
        Да
        Нет


        Top 10 за месяц (Передачи)