.
Авторизация | Регистрация
Хочешь лучшие торренты? Добавь свой email!
Добавить

Торрент скачать бесплатно

» » Шорт-трек. Кубок Мира 2017-2018. 4-й Этап. Сеул (Южная Корея). 4-й день соревнований (19.11.2017) IPTV [H.264 / 1080p-LQ] торрент скачать бесплатно




    Шорт-трек. Кубок Мира 2017-2018. 4-й Этап. Сеул (Южная Корея). 4-й день соревнований (19.11.2017) IPTV [H.264 / 1080p-LQ] торрент скачать бесплатно

    Опубликовал: Админ | Дата: 27-11-2017, 05:00 | Просмотров: 0

    Телекомпания: Матч! Арена HD
    Жанр: Спорт
    Комментаторы: Максим Батейкин, Ольга Богословская

    Описание
    19 ноября 2017 года
    Кубок Мира 2017-2018. 4-й Этап. Сеул (Южная Корея)
    4-й день соревнований:
    Женщины/Mужчины - 1000 м. - 1/4 Финала, 1/2 Финала, Финалы
    Женщины - Эстафета 3000 м. - Финалы
    Mужчины - Эстафета 5000 м. - Финалы
    Стадион: Ледовый каток Мокдонг (Сеул, Южная Корея)
    Релиз от: vobosha
    Продолжительность: 01: 55: 40
    Качество видео: IPTV
    Язык озвучки: Русский
    Субтитры: отсутствуют
    Видео: AVC/H.264, 1920x1080 (16: 9), ~4070 Kbps
    Аудио: AAC, 2 ch, 48 kHz, ~128 Kbps

    Общее
    Уникальный идентификатор : 220646295276466095741687609754866950115 (0xA5FEEE439B77712193B51403E2C41FE3)
    Полное имя : F: SPORTКонькиShort-track(19.11.2017)_ISU 4St. WC Short Track 17-18.Seoul(KOR). 4 Day.mkv
    Формат : Matroska
    Версия формата : Version 4/Version 2
    Размер файла : 3, 39 Гбайт
    Продолжительность : 1 ч. 55 м.
    Общий поток : 4200 Кбит/сек
    Дата кодирования : UTC 2017-11-26 04: 10: 11
    Программа кодирования : mkvmerge v18.0.0 (\'Apricity\') 32-bit
    Библиотека кодирования : libebml v1.3.5 + libmatroska v1.4.8
    Видео
    Идентификатор : 1
    Формат : AVC
    Формат/Информация : Advanced Video Codec
    Профиль формата : High@L4
    Настройки формата : CABAC/4 Ref Frames
    Параметр CABAC формата : Да
    Параметр RefFrames формата : 4 кадра
    Идентификатор кодека : V_MPEG4/ISO/AVC
    Продолжительность : 1 ч. 55 м.
    Битрейт : 4070 Кбит/сек
    Ширина : 1920 пикселей
    Высота : 1080 пикселей
    Соотношение сторон : 16: 9
    Режим частоты кадров : Постоянный
    Частота кадров : 25, 000 кадров/сек
    Стандарт вещания : Component
    Цветовое пространство : YUV
    Субдискретизация насыщенности : 4: 2: 0
    Битовая глубина : 8 бит
    Тип развёртки : Прогрессивная
    Бит/(Пиксели*Кадры) : 0.079
    Размер потока : 3, 29 Гбайт (97%)
    Default : Да
    Forced : Нет
    Цветовой диапазон : Limited
    Аудио
    Идентификатор : 2
    Формат : AAC
    Формат/Информация : Advanced Audio Codec
    Профиль формата : LC
    Идентификатор кодека : A_AAC-2
    Продолжительность : 1 ч. 55 м.
    Битрейт : 128 Кбит/сек
    Каналы : 2 канала
    Расположение каналов : Front: L R
    Частота : 48, 0 КГц
    Частота кадров : 46, 875 кадров/сек (1024 SPF)
    Метод сжатия : С потерями
    Размер потока : 106 Мбайт (3%)
    Язык : Russian
    Default : Да
    Forced : Нет

    Скриншоты для ознакомления



    Все одноименные релизы в Клубе
    Время раздачи: 24/7 (около 1 месяца)


    Шорт-трек. Кубок Мира 2017-2018. 4-й Этап. Сеул (Южная Корея). 4-й день соревнований (19.11.2017) IPTV [H.264/1080p-LQ]
    загрузка...
    Рейтинг →
     (голосов: 1, оценка 3/5, голосовать можно 1 раз )

    Другие торренты по теме:

  • Шорт-трек. Кубок Мира 2016-2017. 2-й Этап. Солт Лейк Сити (США). 2-й день соревнований (12.11.2016) WEB-DL [H.264 / 720p-LQ]
  • Шорт-трек. Кубок Мира 2016-2017. 2-й Этап. Солт Лейк Сити (США). 3-й день соревнований (2016) WEB-DL
  • Шорт-трек. Кубок Мира 2016-2017. 1-й Этап. Калгари (Канада). 3-й день соревнований (06.11.2016) WEB-DL [H.264 / 720p-LQ]
  • Шорт-трек. Кубок Мира 2016-2017. 1-й Этап. Калгари (Канада). 2-й день соревнований (05.11.2016) WEB-DL [H.264 / 720p-LQ]
  • Шорт-трек. Кубок Мира 2016-2017. Шанхай (Китай). 3-й Этап (2016) WEB-DL [H.264 / 720p-LQ]
  • Шорт-трек. Кубок Мира 2016-2017.4-й Этап. Каннын (Южная Корея). 3-й день соревнований (18.12.2016) WEB-DL [H.264 / 720p-LQ]
  • Шорт-трек. Кубок Мира 2016-2017.4-й Этап. Каннын (Южная Корея). 2-й день соревнований (17.12.2016) WEB-DL [H.264 / 720p-LQ][INT]
  • Шорт-трек. Кубок Мира 2016-2017. 6-й Этап. Минск (Беларусь). 3-й день соревнований (12.02.2017) WEB-DL [H.264 / 720p-LQ]


    • Комментарии (0):

      Информация

      Информация

        Посетители, находящиеся в группе Гости, не могут оставлять комментарии в данной новости.

        ↓ Меню




        ↓ Опрос

        Вы добавили сайт в закладки?
        Да
        Нет


        Top 10 за месяц (Передачи)