.
Авторизация | Регистрация
Хочешь лучшие торренты? Добавь свой email!
Добавить

Торрент скачать бесплатно

» » Футбол. Лига Чемпионов УЕФА 2017-2018. Группа A. 5-й тур. ЦСКА (Россия) – Бенфика (Португалия) (22.11.2017) HDTVRip [H.264 / 720p-LQ] [hand made 50fps] торрент скачать бесплатно




    Футбол. Лига Чемпионов УЕФА 2017-2018. Группа A. 5-й тур. ЦСКА (Россия) – Бенфика (Португалия) (22.11.2017) HDTVRip [H.264 / 720p-LQ] [hand made 50fps] торрент скачать бесплатно

    Опубликовал: Админ | Дата: 27-11-2017, 05:00 | Просмотров: 0

    Телекомпания: Матч ТВ HD
    Жанр: Спорт
    Комментаторы: Артем Шмельков, Сергей Кривохарченко

    Описание
    22 ноября 2017 года, среда. 20: 00 МСК
    Лига Чемпионов УЕФА 2017-2018. Групповой турнир
    Группа A. 5-й тур.
    ЦСКА (Москва, Россия) – Бенфика (Лиссабон, Португалия)
    Стадион: ВЭБ Арена (Арена ЦСКА) (Москва, Россия), 27709 зрителей (92 % при вместимости 30000)
    Главный судья: Дениз Айтекин (Германия)
    Ассистент: Рафаэль Фольтин (Германия)
    Ассистент: Маркус Хаккер (Германия)
    Резервный: Эдуард Байтингер (Германия)
    Релиз от: CSKAfan
    Продолжительность: 02: 31: 42
    Качество видео: HDTVRip
    Язык озвучки: Русский, Интершум
    Субтитры: отсутствуют
    Видео: AVC/H.264, 1280x720 (16: 9), ~4191 Kbps, 50 fps
    Аудио #1: AC3, 2 ch, 48 kHz, 128 Kbps | Русский
    Аудио #2: AC3, 2 ch, 48 kHz, 128 Kbps | Интершум

    Общее
    Уникальный идентификатор : 238857485271951523610889634463293199520 (0xB3B24740CEA0A5BEA6E3628750B154A0)
    Полное имя : F: SPORTФутболЛига Чемпионов 2017-2018(22.11.2017)_UEFA ChLeague 17-18.Gr A.5t. CSKA(Russia) - Benfica(Portugal).mkv
    Формат : Matroska
    Версия формата : Version 4/Version 2
    Размер файла : 4, 72 Гбайт
    Продолжительность : 2 ч. 31 м.
    Общий поток : 4451 Кбит/сек
    Дата кодирования : UTC 2017-11-26 06: 27: 23
    Программа кодирования : mkvmerge v18.0.0 (\'Apricity\') 32-bit
    Библиотека кодирования : libebml v1.3.5 + libmatroska v1.4.8
    Видео
    Идентификатор : 1
    Формат : AVC
    Формат/Информация : Advanced Video Codec
    Профиль формата : High@L3.2
    Настройки формата : CABAC/4 Ref Frames
    Параметр CABAC формата : Да
    Параметр RefFrames формата : 4 кадра
    Идентификатор кодека : V_MPEG4/ISO/AVC
    Продолжительность : 2 ч. 31 м.
    Битрейт : 4191 Кбит/сек
    Ширина : 1280 пикселей
    Высота : 720 пикселей
    Соотношение сторон : 16: 9
    Режим частоты кадров : Постоянный
    Частота кадров : 50, 000 кадров/сек
    Цветовое пространство : YUV
    Субдискретизация насыщенности : 4: 2: 0
    Битовая глубина : 8 бит
    Тип развёртки : Прогрессивная
    Бит/(Пиксели*Кадры) : 0.091
    Размер потока : 4, 44 Гбайт (94%)
    Default : Да
    Forced : Нет
    Аудио #1
    Идентификатор : 2
    Формат : AC-3
    Формат/Информация : Audio Coding 3
    Параметр Endianness формата : Big
    Идентификатор кодека : A_AC3
    Продолжительность : 2 ч. 31 м.
    Вид битрейта : Постоянный
    Битрейт : 128 Кбит/сек
    Каналы : 2 канала
    Расположение каналов : Front: L R
    Частота : 48, 0 КГц
    Частота кадров : 31, 250 кадров/сек (1536 SPF)
    Битовая глубина : 16 бит
    Метод сжатия : С потерями
    Размер потока : 139 Мбайт (3%)
    Язык : Russian
    ServiceKind/String : Complete Main
    Default : Да
    Forced : Нет
    Аудио #2
    Идентификатор : 3
    Формат : AC-3
    Формат/Информация : Audio Coding 3
    Идентификатор кодека : A_AC3
    Продолжительность : 2 ч. 31 м.
    Битрейт : 128 Кбит/сек
    Каналы : 2 канала
    Частота : 48, 0 КГц
    Частота кадров : 31, 250 кадров/сек (1536 SPF)
    Метод сжатия : С потерями
    Размер потока : 139 Мбайт (3%)
    Язык : Несколько языков
    Default : Нет
    Forced : Нет

    Скриншоты для ознакомления



    Все одноименные релизы в Клубе
    Время раздачи: 24/7 (до 1 месяца)


    Футбол. Лига Чемпионов УЕФА 2017-2018. Группа A. 5-й тур. ЦСКА (Россия) – Бенфика (Португалия) (22.11.2017) HDTVRip [H.264/720p-LQ] [hand made 50fps]
    загрузка...
    Рейтинг →
     (голосов: 1, оценка 3/5, голосовать можно 1 раз )

    Другие торренты по теме:

  • Футбол. Лига Европы УЕФА 2017-2018. Ньон (Швейцария). Жеребьевка 1 / 16 финала (11.12.2017) HDTVRip [H.264 / 720p-LQ] [hand made 50fps]
  • Футбол. Лига Чемпионов УЕФА 2017-2018. Ньон (Швейцария). Жеребьевка 1 / 8 финала (11.12.2017) HDTVRip [H.264 / 720p-LQ] [hand made 50fps]
  • Футбол. Лига Чемпионов 2014-15 / 1 / 8 финала. Первые матчи. 1-й день. Обзор матчей (2015) HDTVRip 720p скачать через торрент бесплатно
  • Футбол. Лига Чемпионов 2014-15 / 1 / 8 финала. Первый матч. Шальке 04 (Германия) - Реал Мадрид (Испания) ([18.02] (2015)) HDTVRip 720p | 50 fps
  • Футбол. Лига Чемпионов 2015-16. Группа B. 1-й тур Вольфсбург (Германия) - ЦСКА (Россия) (2015) HDTVRip [H.264 / 720p-LQ] скачать через торрент бесплатно
  • Футбол. Лига Чемпионов 2015-16. Группа D. 1-й тур. Манчестер Сити (Англия) - Ювентус (Италия) (2015) HDTVRip [H.264 / 720p-LQ] скачать через торрент бесплатно
  • Футбол. Лига Чемпионов 2015-16. Группа B. 1-й тур. ПСВ Эйндховен (Нидрланды) - Манчестер Юнайтед (Англия) (2015) HDTVRip [H.264 / 720p-LQ] скачать через торрент бесплатно
  • Футбол. Лига Чемпионов 2015-16. Группа A. 1-й тур. Реал Мадрид (Испания) - Шахтёр (Украина) (2015) HDTVRip [H.264 / 720p-LQ] [hand made 50fps] скачать через торрент бесплатно


    • Комментарии (0):

      Информация

      Информация

        Посетители, находящиеся в группе Гости, не могут оставлять комментарии в данной новости.

        ↓ Меню




        ↓ Опрос

        Вы добавили сайт в закладки?
        Да
        Нет


        Top 10 за месяц (Передачи)