.
Авторизация | Регистрация
Хочешь лучшие торренты? Добавь свой email!
Добавить

Торрент скачать бесплатно

» » Футбол. Товарищеский матч 2017. Россия — Аргентина (11.11.2017) HDTVRip [H.264 / 720p-LQ] [hand made 50fps] торрент скачать бесплатно




    Футбол. Товарищеский матч 2017. Россия — Аргентина (11.11.2017) HDTVRip [H.264 / 720p-LQ] [hand made 50fps] торрент скачать бесплатно

    Опубликовал: Админ | Дата: 13-11-2017, 05:00 | Просмотров: 0

    Телекомпания: 1 HD
    Жанр: Спорт
    Комментаторы: Кирилл Дементьев, Валерий Карпин, Константин Выборнов

    Описание
    11 ноября 2017 года, суббота. 16: 00 МСК
    Товарищеский матч 2017
    Россия — Аргентина
    Стадион: Лужники БСА (Москва, Россия), вместимость: 84745
    Главный судья: Дамир Скомина (Словения)
    Ассистент: Юре Прапротник (Словения)
    Ассистент: Роберт Вукан (Словения)
    Резервный: Алексей Еськов (Россия)
    Продолжительность: 01: 53: 01
    Качество видео: HDTVRip
    Язык озвучки: Русский
    Субтитры: отсутствуют
    Видео: AVC/H.264, 1280x720 (16: 9), ~5158 Kbps, 50 fps
    Аудио #1: AC3, 6 ch, 48 kHz, 128 Kbps
    Аудио #2: AC3, 2 ch, 48 kHz, 128 Kbps

    Общее
    Уникальный идентификатор : 173757903807009341660539912575299534928 (0x82B88E1495840BF1BD530361466EC050)
    Полное имя : F: SPORTФутбол(11.11.2017)_Friendly Match 2017. Russia - Argentina.mkv
    Формат : Matroska
    Версия формата : Version 4/Version 2
    Размер файла : 4, 28 Гбайт
    Продолжительность : 1 ч. 53 м.
    Общий поток : 5417 Кбит/сек
    Дата кодирования : UTC 2017-11-11 20: 23: 48
    Программа кодирования : mkvmerge v17.0.0 (\'Be Ur Friend\') 32-bit
    Библиотека кодирования : libebml v1.3.5 + libmatroska v1.4.8
    Видео
    Идентификатор : 1
    Формат : AVC
    Формат/Информация : Advanced Video Codec
    Профиль формата : High@L4.1
    Настройки формата : CABAC/4 Ref Frames
    Параметр CABAC формата : Да
    Параметр RefFrames формата : 4 кадра
    Идентификатор кодека : V_MPEG4/ISO/AVC
    Продолжительность : 1 ч. 53 м.
    Битрейт : 5158 Кбит/сек
    Ширина : 1280 пикселей
    Высота : 720 пикселей
    Соотношение сторон : 16: 9
    Режим частоты кадров : Постоянный
    Частота кадров : 50, 000 кадров/сек
    Цветовое пространство : YUV
    Субдискретизация насыщенности : 4: 2: 0
    Битовая глубина : 8 бит
    Тип развёртки : Прогрессивная
    Бит/(Пиксели*Кадры) : 0.112
    Размер потока : 4, 07 Гбайт (95%)
    Default : Да
    Forced : Нет
    Аудио #1
    Идентификатор : 2
    Формат : AC-3
    Формат/Информация : Audio Coding 3
    Параметр Endianness формата : Big
    Идентификатор кодека : A_AC3
    Продолжительность : 1 ч. 53 м.
    Вид битрейта : Постоянный
    Битрейт : 128 Кбит/сек
    Каналы : 6 каналов
    Расположение каналов : Front: L C R, Side: L R, LFE
    Частота : 48, 0 КГц
    Частота кадров : 31, 250 кадров/сек (1536 SPF)
    Битовая глубина : 16 бит
    Метод сжатия : С потерями
    Размер потока : 103 Мбайт (2%)
    Язык : Russian
    ServiceKind/String : Complete Main
    Default : Да
    Forced : Нет
    Аудио #2
    Идентификатор : 3
    Формат : AC-3
    Формат/Информация : Audio Coding 3
    Идентификатор кодека : A_AC3
    Продолжительность : 1 ч. 53 м.
    Битрейт : 128 Кбит/сек
    Каналы : 2 канала
    Частота : 48, 0 КГц
    Частота кадров : 31, 250 кадров/сек (1536 SPF)
    Метод сжатия : С потерями
    Размер потока : 103 Мбайт (2%)
    Язык : Russian
    Default : Нет
    Forced : Нет

    Скриншоты для ознакомления



    Все одноименные релизы в Клубе
    Время раздачи: 24/7 (до 1 месяца)


    Футбол. Товарищеский матч 2017. Россия — Аргентина (11.11.2017) HDTVRip [H.264/720p-LQ] [hand made 50fps]
    загрузка...
    Рейтинг →
     (голосов: 1, оценка 5/5, голосовать можно 1 раз )

    Другие торренты по теме:

  • Футбол. Товарищеский матч 2017. Россия — Испания (14.11.2017) HDTVRip [H.264 / 720p-LQ] [hand made 50fps]
  • Футбол. Товарищеский матч. Россия – Хорватия (2015) HDTVRip [H.264 / 720p-LQ] скачать через торрент бесплатно
  • Футбол. Товарищеский матч. Россия – Португалия (2015) HDTVRip [H.264 / 720p-LQ] [hand made 50fps] скачать через торрент бесплатно
  • Футбол. Товарищеский матч. Испания - Англия (2015) HDTVRip [H.264 / 720p-LQ] [hand made 50fps] скачать через торрент бесплатно
  • Футбол. Товарищеский матч. Италия - Испания (24.03.2016) HDTVRip [H.264 / 720p-LQ] [ES]
  • Футбол. Товарищеский матч. Украина - Кипр (24.03.2016) HDTVRip [H.264 / 720p-LQ]
  • Футбол. Товарищеский матч. Турция - Швеция (24.03.2016) HDTVRip [H.264 / 720p-LQ]
  • Футбол. Товарищеский матч. Уэльс - Северная Ирландия (24.03.2016) HDTVRip [H.264 / 720p-LQ]


    • Комментарии (0):

      Информация

      Информация

        Посетители, находящиеся в группе Гости, не могут оставлять комментарии в данной новости.

        ↓ Меню




        ↓ Опрос

        Вы добавили сайт в закладки?
        Да
        Нет


        Top 10 за месяц (Передачи)

        Михаил Задорнов. Лучшее - сборник лучших эстрадных номеров Михаила Задорнова за 30 лет (1984-2014) WEBRip скачать через торрент бесплатно

        (скачиваний: 7)
        Фигурное катание. Гран-при 2017-2018. 3-й Этап. Кубок Китая 2017. Пекин (Китай). 2 День (04.11.2017) HDTV [H.264 / 1080i-LQ]

        (скачиваний: 6)
        Журнал | Всему свету по совету №1 (228) (январь 2017) [PDF]

        (скачиваний: 6)
        Святитель Феофан Затворник | Собрание сочинений [69 Томов] (2008) [FB2]

        (скачиваний: 5)
        Трэвис Хэйли. Адаптивный автомат Калашникова / Travis Haley: Adaptive Kalash (2011) WEBRip [720p-LQ] скачать через торрент бесплатно

        (скачиваний: 5)
        Айрэн По, Джули По | Нумерология, как профессия. Мы из матрицы. Книга 1 (2016) [DJVU]

        (скачиваний: 4)
        Орел и решка. Перезагрузка (2017.11.07) WEB-DL [H.264 / 720p-LQ] (сезон 14: Ибица. Испания)

        (скачиваний: 4)
        Comedy Club (2010-2014) SATRip / WEB-DLRip [Выпуск: 201-363] скачать через торрент бесплатно

        (скачиваний: 4)
        Николай Ягодкин | Технология постановки навыков (2013) PCRec [H.264]

        (скачиваний: 4)
        Журнал | Рецепты на бис. Спецвыпуск №1 (19) (2017) [PDF]

        (скачиваний: 4)