.
Авторизация | Регистрация
Хочешь лучшие торренты? Добавь свой email!
Добавить

Торрент скачать бесплатно

» » Хоккей. Евро хоккей тур 2017—2018. Кубок Карьяла 2017. Чехия – Швейцария (10.11.2017) HDTVRip [H.264 / 720p-LQ] [hand made 50fps] торрент скачать бесплатно




    Хоккей. Евро хоккей тур 2017—2018. Кубок Карьяла 2017. Чехия – Швейцария (10.11.2017) HDTVRip [H.264 / 720p-LQ] [hand made 50fps] торрент скачать бесплатно

    Опубликовал: Админ | Дата: 13-11-2017, 05:00 | Просмотров: 0

    Телекомпания: Матч! Игра HD
    Жанр: Спорт
    Комментаторы: Александр Неценко

    Описание
    10 ноября 2017 года, пятница. 16: 00 МСК
    Евро хоккей тур 2017—2018. Кубок Карьяла 2017
    Чехия – Швейцария
    Стадион: Хартвалл-Арена (Хельсинки, Финляндия), вместимость: 13464
    Главные судьи: Микко Каукокари (Финляндия), Ласси Хейккинен (Финляндия)
    Релиз от: toshap
    Продолжительность: 01: 55: 49
    Качество видео: HDTVRip
    Язык озвучки: Русский
    Субтитры: отсутствуют
    Видео: AVC/H.264, 1280x720 (16: 9), ~ 3581 Kbps, 50 fps
    Аудио: AC3, 2 ch, 48.0 KHz, 128 Kbps
    Код: выделить все

    Общее
    Уникальный идентификатор : 186645299151095329559406841012898372141 (0x8C6A93BA4C1A218897EC2BDADBDA1A2D)
    Полное имя : F:SPORTХоккейЕвротур 17-18(10.11.2017)_EHT 17-18.Karjala Cup 2017. Czechia - Switzerland.mkv
    Формат : Matroska
    Версия формата : Version 4/Version 2
    Размер файла : 3, 00 Гбайт
    Продолжительность : 1 ч. 55 м.
    Общий поток : 3712 Кбит/сек
    Дата кодирования : UTC 2017-11-12 02:57:34
    Программа кодирования : mkvmerge v17.0.0 (\'Be Ur Friend\') 32-bit
    Библиотека кодирования : libebml v1.3.5 + libmatroska v1.4.8
    Видео
    Идентификатор : 1
    Формат : AVC
    Формат/Информация : Advanced Video Codec
    Профиль формата :High@L3.2
    Настройки формата : CABAC/4 Ref Frames
    Параметр CABAC формата : Да
    Параметр RefFrames формата : 4 кадра
    Идентификатор кодека : V_MPEG4/ISO/AVC
    Продолжительность : 1 ч. 55 м.
    Битрейт : 3581 Кбит/сек
    Ширина : 1280 пикселей
    Высота : 720 пикселей
    Соотношение сторон : 16:9
    Режим частоты кадров : Постоянный
    Частота кадров : 49, 950 кадров/сек
    Цветовое пространство : YUV
    Субдискретизация насыщенности : 4:2:0
    Битовая глубина : 8 бит
    Тип развёртки : Прогрессивная
    Бит/(Пиксели*Кадры) : 0.078
    Размер потока : 2, 90 Гбайт (96%)
    Библиотека кодирования : x264 core 150 r2833 df79067
    Настройки программы : cabac=1/ref=3/deblock=1:0:0/analyse=0x3:0x113/me=hex/subme=7/psy=1/psy_rd=1.00:0.00/mixed_ref=1/me_range=16/chroma_me=1/trellis=1/8x8dct=1/cqm=0/deadzone=21, 11/fast_pskip=1/chroma_qp_offset=-2/threads=12/lookahead_threads=2/sliced_threads=0/nr=0/decimate=1/interlaced=0/bluray_compat=0/constrained_intra=0/bframes=3/b_pyramid=2/b_adapt=1/b_bias=0/direct=1/weightb=1/open_gop=0/weightp=2/keyint=250/keyint_min=25/scenecut=40/intra_refresh=0/rc_lookahead=40/rc=crf/mbtree=1/crf=21.5/qcomp=0.60/qpmin=0/qpmax=69/qpstep=4/ip_ratio=1.40/aq=1:1.00
    Default : Да
    Forced : Нет
    Аудио
    Идентификатор : 2
    Формат : AC-3
    Формат/Информация : Audio Coding 3
    Параметр Endianness формата : Big
    Идентификатор кодека : A_AC3
    Продолжительность : 1 ч. 55 м.
    Вид битрейта : Постоянный
    Битрейт : 128 Кбит/сек
    Каналы : 2 канала
    Расположение каналов : Front: L R
    Частота : 48, 0 КГц
    Частота кадров : 31, 250 кадров/сек (1536 SPF)
    Битовая глубина : 16 бит
    Метод сжатия : С потерями
    Задержка видео : 104 мс.
    Размер потока : 106 Мбайт (3%)
    Язык : Russian
    ServiceKind/String : Complete Main
    Default : Да
    Forced : Нет

    Скриншоты для ознакомления



    Все одноименные релизы в Клубе
    Время раздачи: 24/7 (около 1 месяца)


    Хоккей. Евро хоккей тур 2017—2018. Кубок Карьяла 2017. Чехия – Швейцария (10.11.2017) HDTVRip [H.264/720p-LQ] [hand made 50fps]
    загрузка...
    Рейтинг →
     (голосов: 1, оценка 5/5, голосовать можно 1 раз )

    Другие торренты по теме:

  • Хоккей. Евро хоккей тур 2017—2018. Кубок Карьяла 2017. Россия – Чехия (12.11.2017) HDTVRip [H.264 / 720p-LQ] [hand made 50fps]
  • Хоккей. Евро хоккей тур 2017—2018. Кубок Карьяла 2017. Финляндия – Канада (12.11.2017) HDTV [H.264 / 1080i]
  • Хоккей. Евро хоккей тур 2016-2017. Кубок Первого канала. 3-й тур. Чехия — Швеция (18.12.2016) HDTVRip [H.264 / 1080p-LQ]
  • Хоккей. Евро хоккей тур 2017—2018. Кубок Карьяла 2017. Швейцария – Канада (08.11.2017) HDTVRip [H.264 / 720p-LQ] [hand made 50fps]
  • Хоккей. Евро хоккей тур 2017—2018. Кубок Карьяла 2017. Швеция – Чехия (08.11.2017) HDTVRip [H.264 / 720p-LQ] [hand made 50fps]
  • Хоккей. Евро хоккей тур 2017—2018. Кубок Карьяла 2017. Россия – Финляндия (09.11.2017) HDTVRip [H.264 / 720p-LQ] [hand made 50fps]
  • Хоккей. Евро хоккей тур 2017—2018. Кубок Карьяла 2017. Канада – Швеция (10.11.2017) HDTVRip [H.264 / 720p-LQ] [hand made 50fps]
  • Хоккей. Евро хоккей тур 2017—2018. Кубок Карьяла 2017. Финляндия – Швеция (11.11.2017) HDTVRip [H.264 / 720p-LQ] [hand made 50fps]


    • Комментарии (0):

      Информация

      Информация

        Посетители, находящиеся в группе Гости, не могут оставлять комментарии в данной новости.

        ↓ Меню




        ↓ Опрос

        Вы добавили сайт в закладки?
        Да
        Нет


        Top 10 за месяц (Передачи)

        Михаил Задорнов. Лучшее - сборник лучших эстрадных номеров Михаила Задорнова за 30 лет (1984-2014) WEBRip скачать через торрент бесплатно

        (скачиваний: 7)
        Фигурное катание. Гран-при 2017-2018. 3-й Этап. Кубок Китая 2017. Пекин (Китай). 2 День (04.11.2017) HDTV [H.264 / 1080i-LQ]

        (скачиваний: 6)
        Журнал | Всему свету по совету №1 (228) (январь 2017) [PDF]

        (скачиваний: 6)
        Святитель Феофан Затворник | Собрание сочинений [69 Томов] (2008) [FB2]

        (скачиваний: 5)
        Трэвис Хэйли. Адаптивный автомат Калашникова / Travis Haley: Adaptive Kalash (2011) WEBRip [720p-LQ] скачать через торрент бесплатно

        (скачиваний: 5)
        Айрэн По, Джули По | Нумерология, как профессия. Мы из матрицы. Книга 1 (2016) [DJVU]

        (скачиваний: 4)
        Орел и решка. Перезагрузка (2017.11.07) WEB-DL [H.264 / 720p-LQ] (сезон 14: Ибица. Испания)

        (скачиваний: 4)
        Comedy Club (2010-2014) SATRip / WEB-DLRip [Выпуск: 201-363] скачать через торрент бесплатно

        (скачиваний: 4)
        Николай Ягодкин | Технология постановки навыков (2013) PCRec [H.264]

        (скачиваний: 4)
        Журнал | Рецепты на бис. Спецвыпуск №1 (19) (2017) [PDF]

        (скачиваний: 4)