.
Авторизация | Регистрация
Хочешь лучшие торренты? Добавь свой email!
Добавить

Торрент скачать бесплатно

» » Формула 1. Гран-при Бразилии 2017. 19-й Этап. Квалификация (11.11.2017) HDTVRip [H.264 / 720p-LQ] [hand made 50fps] торрент скачать бесплатно




    Формула 1. Гран-при Бразилии 2017. 19-й Этап. Квалификация (11.11.2017) HDTVRip [H.264 / 720p-LQ] [hand made 50fps] торрент скачать бесплатно

    Опубликовал: Админ | Дата: 13-11-2017, 05:00 | Просмотров: 0

    Телекомпания: Россия, Матч HD
    Жанр: Спорт
    Комментаторы: Алексей Попов, Наталья Фабричнова

    Описание

    Бразильский Интерлагос — это трасса контрастов. Конфигурация круга и перепад высот делают её едва ли не самой сложной для установки настроек болида. На первом и третьем секторе главной оказывается мощность двигателя и максимальная скорость, а на втором участке (узком и извилистом) — высокая прижимная сила.
    Трасса расположена на высоте около 800 м над уровнем моря, а это затрудняет работу двигателей (силовые агрегаты теряют до 13 % мощности — самый высокий показатель среди автодромов Ф1). Асфальт не очень абразивный, поэтому износ резины не слишком большой. Непредсказуемость бразильской гонке добавляет переменчивая погода (в Сан–Паулу велика вероятность дождя).

    Продолжительность: 01: 10: 14
    Качество видео: HDTVRip
    Язык озвучки: Русский
    Видео: AVC/H.264, 1280x720, ~ 4000 Kbps
    Аудио: AC3, 2 ch, 192 Kbps

    General
    Unique ID : 217303106162340021861932801427203454558 (0xA37B0E508D9005AD883C1FF314E4765E)
    Complete name : F: F1.Round.19.Grande.Premio.do.Brazil.2017.Qualifying.HDTVRip.720p.mkv
    Format : Matroska
    Format version : Version 4/Version 2
    File size : 2.07 GiB
    Duration : 1 h 10 min
    Overall bit rate : 4 222 kb/s
    Encoded date : UTC 2017-11-11 17: 25: 54
    Writing application : mkvmerge v10.0.0 (\'To Drown In You\') 32bit
    Writing library : libebml v1.3.4 + libmatroska v1.4.5/Lavf54.63.104
    Video
    ID : 1
    Format : AVC
    Format/Info : Advanced Video Codec
    Format profile : High@L4.1
    Format settings, CABAC : Yes
    Format settings, RefFrames : 4 frames
    Format settings, GOP : M=2, N=15
    Codec ID : V_MPEG4/ISO/AVC
    Duration : 1 h 10 min
    Bit rate : 4 026 kb/s
    Width : 1 280 pixels
    Height : 720 pixels
    Display aspect ratio : 16: 9
    Frame rate mode : Constant
    Frame rate : 50.000 FPS
    Color space : YUV
    Chroma subsampling : 4: 2: 0
    Bit depth : 8 bits
    Scan type : Progressive
    Bits/(Pixel*Frame) : 0.087
    Stream size : 1.98 GiB (95%)
    Default : No
    Forced : No
    Color range : Limited
    Color primaries : BT.709
    Transfer characteristics : BT.709
    Matrix coefficients : BT.709
    Audio
    ID : 2
    Format : AC-3
    Format/Info : Audio Coding 3
    Format settings, Endianness : Big
    Codec ID : A_AC3
    Duration : 1 h 10 min
    Bit rate mode : Constant
    Bit rate : 192 kb/s
    Channel(s) : 2 channels
    Channel positions : Front: L R
    Sampling rate : 48.0 kHz
    Frame rate : 31.250 FPS (1536 SPF)
    Bit depth : 16 bits
    Compression mode : Lossy
    Stream size : 96.5 MiB (5%)
    Language : Russian
    Service kind : Complete Main
    Default : Yes
    Forced : No
    Menu
    00: 00: 00.000 : en: Глава 01
    00: 35: 23.040 : en: Глава 02
    00: 53: 16.544 : en: Глава 03

    Скриншоты для ознакомления



    Все одноименные релизы в Клубе
    Время раздачи: до 3-х скачавших, далее по возможности. (до появления первых 3-5 скачавших)


    Формула 1. Гран-при Бразилии 2017. 19-й Этап. Квалификация (11.11.2017) HDTVRip [H.264/720p-LQ] [hand made 50fps]
    загрузка...
    Рейтинг →
     (голосов: 1, оценка 4/5, голосовать можно 1 раз )

    Другие торренты по теме:

  • Формула 1. Гран-при Бразилии 2017. 19-й Этап. Гонка (12.11.2017) HDTVRip [H.264 / 720p-LQ] [hand made 50fps]
  • Формула 1. Гран-при Бразилии 2017. 19-й Этап. Гонка (12.11.2017) HDTV [H.264 / 1080i]
  • Формула 1. Гран-При Сингапура. Гонка (2014) HDTVRip [H.264 / 720p] [hand made 50fps]
  • Формула 1. Гран-При Японии. Гонка (2014) HDTVRip [H.264 / 720p] [hand made 50fps] скачать через торрент бесплатно
  • Формула 1. Гран-При России. Квалификация (2014) HDTVRip [H.264 / 720p] [hand made 50fps] скачать через торрент бесплатно
  • Формула 1. Гран-При России. Гонка (2014) HDTVRip [H.264 / 720p] [hand made 50fps] скачать через торрент бесплатно
  • Формула 1. Гран-При России. Гонка (2014) HDTVRip [H.264] скачать через торрент бесплатно
  • Формула 1. Гран-При США. Квалификация (2014) HDTVRip [H.264]


    • Комментарии (0):

      Информация

      Информация

        Посетители, находящиеся в группе Гости, не могут оставлять комментарии в данной новости.

        ↓ Меню




        ↓ Опрос

        Вы добавили сайт в закладки?
        Да
        Нет


        Top 10 за месяц (Передачи)

        Михаил Задорнов. Лучшее - сборник лучших эстрадных номеров Михаила Задорнова за 30 лет (1984-2014) WEBRip скачать через торрент бесплатно

        (скачиваний: 7)
        Журнал | Всему свету по совету №1 (228) (январь 2017) [PDF]

        (скачиваний: 6)
        Фигурное катание. Гран-при 2017-2018. 3-й Этап. Кубок Китая 2017. Пекин (Китай). 2 День (04.11.2017) HDTV [H.264 / 1080i-LQ]

        (скачиваний: 6)
        Трэвис Хэйли. Адаптивный автомат Калашникова / Travis Haley: Adaptive Kalash (2011) WEBRip [720p-LQ] скачать через торрент бесплатно

        (скачиваний: 5)
        Святитель Феофан Затворник | Собрание сочинений [69 Томов] (2008) [FB2]

        (скачиваний: 5)
        Орел и решка. Перезагрузка (2017.11.07) WEB-DL [H.264 / 720p-LQ] (сезон 14: Ибица. Испания)

        (скачиваний: 4)
        Николай Ягодкин | Технология постановки навыков (2013) PCRec [H.264]

        (скачиваний: 4)
        Журнал | Рецепты на бис. Спецвыпуск №1 (19) (2017) [PDF]

        (скачиваний: 4)
        Айрэн По, Джули По | Нумерология, как профессия. Мы из матрицы. Книга 1 (2016) [DJVU]

        (скачиваний: 4)
        Comedy Club (2010-2014) SATRip / WEB-DLRip [Выпуск: 201-363] скачать через торрент бесплатно

        (скачиваний: 4)