.
Авторизация | Регистрация
Хочешь лучшие торренты? Добавь свой email!
Добавить

Торрент скачать бесплатно

» » Формула 1. Гран-при Бразилии 2017. 19-й Этап. Квалификация (11.11.2017) HDTV [H.264 / 1080i] торрент скачать бесплатно




    Формула 1. Гран-при Бразилии 2017. 19-й Этап. Квалификация (11.11.2017) HDTV [H.264 / 1080i] торрент скачать бесплатно

    Опубликовал: Админ | Дата: 13-11-2017, 05:00 | Просмотров: 0

    Телекомпания: Россия, Матч HD
    Жанр: Спорт
    Комментаторы: Алексей Попов, Наталья Фабричнова

    Описание

    Бразильский Интерлагос — это трасса контрастов. Конфигурация круга и перепад высот делают её едва ли не самой сложной для установки настроек болида. На первом и третьем секторе главной оказывается мощность двигателя и максимальная скорость, а на втором участке (узком и извилистом) — высокая прижимная сила.
    Трасса расположена на высоте около 800 м над уровнем моря, а это затрудняет работу двигателей (силовые агрегаты теряют до 13 % мощности — самый высокий показатель среди автодромов Ф1). Асфальт не очень абразивный, поэтому износ резины не слишком большой. Непредсказуемость бразильской гонке добавляет переменчивая погода (в Сан–Паулу велика вероятность дождя).

    Продолжительность: 01: 10: 13
    Качество видео: HDTV
    Язык озвучки: Русский, Интершум
    Субтитры: Русские (Вшитые, отключаемые)
    Видео: AVC/H.264, 1920x1080, ~9900 Kbps
    Аудио #1: MP2, 2 ch, 192 Kbps | Русский
    Аудио #2: MP2, 2 ch, 192 Kbps | Интершум

    General
    ID : 1 (0x1)
    Complete name : F: F1.Round.19.Grande.Premio.do.Brazil.2017.Qualifying.HDTV.1080i.ts
    Format : MPEG-TS
    File size : 5.30 GiB
    Duration : 1 h 10 min
    Overall bit rate mode : Variable
    Overall bit rate : 10.8 Mb/s
    Video
    ID : 204 (0xCC)
    Menu ID : 2204 (0x89C)
    Format : AVC
    Format/Info : Advanced Video Codec
    Format profile : High@L4
    Format settings, CABAC : Yes
    Format settings, RefFrames : 4 frames
    Codec ID : 27
    Duration : 1 h 10 min
    Bit rate : 9 877 kb/s
    Width : 1 920 pixels
    Height : 1 080 pixels
    Display aspect ratio : 16: 9
    Frame rate : 25.000 FPS
    Standard : Component
    Color space : YUV
    Chroma subsampling : 4: 2: 0
    Bit depth : 8 bits
    Scan type : Interlaced
    Scan type, store method : Separated fields
    Scan order : Top Field First
    Bits/(Pixel*Frame) : 0.191
    Stream size : 4.85 GiB (91%)
    Color range : Limited
    Color primaries : BT.709
    Transfer characteristics : BT.709
    Matrix coefficients : BT.709
    Audio #1
    ID : 304 (0x130)
    Menu ID : 2204 (0x89C)
    Format : MPEG Audio
    Format version : Version 1
    Format profile : Layer 2
    Codec ID : 3
    Duration : 1 h 10 min
    Bit rate mode : Constant
    Bit rate : 192 kb/s
    Channel(s) : 2 channels
    Sampling rate : 48.0 kHz
    Compression mode : Lossy
    Delay relative to video : -40 ms
    Stream size : 96.4 MiB (2%)
    Language : Russian
    Audio #2
    ID : 305 (0x131)
    Menu ID : 2204 (0x89C)
    Format : MPEG Audio
    Format version : Version 1
    Format profile : Layer 2
    Codec ID : 3
    Duration : 1 h 10 min
    Bit rate mode : Constant
    Bit rate : 192 kb/s
    Channel(s) : 2 channels
    Sampling rate : 48.0 kHz
    Compression mode : Lossy
    Delay relative to video : -40 ms
    Stream size : 96.4 MiB (2%)
    Text
    ID : 306 (0x132)-888
    Menu ID : 2204 (0x89C)
    Format : Teletext Subtitle
    Language : Russian
    Language, more info : For hearing impaired people

    Скриншоты для ознакомления



    Все одноименные релизы в Клубе
    Время раздачи: до 3-х скачавших, далее по возможности. (до появления первых 3-5 скачавших)


    Формула 1. Гран-при Бразилии 2017. 19-й Этап. Квалификация (11.11.2017) HDTV [H.264/1080i]
    загрузка...
    Рейтинг →
     (голосов: 1, оценка 4/5, голосовать можно 1 раз )

    Другие торренты по теме:

  • Формула 1. Гран-при Бразилии 2017. 19-й Этап. Гонка (12.11.2017) HDTVRip [H.264 / 720p-LQ] [hand made 50fps]
  • Формула 1. Гран-при Бразилии 2017. 19-й Этап. Гонка (12.11.2017) HDTV [H.264 / 1080i]
  • Формула 1. Гран-При Сингапура. Гонка (2014) HDTVRip [H.264 / 720p] [hand made 50fps]
  • Формула 1. Гран-При Японии. Гонка (2014) HDTVRip [H.264 / 720p] [hand made 50fps] скачать через торрент бесплатно
  • Формула 1. Гран-При России. Квалификация (2014) HDTVRip [H.264 / 720p] [hand made 50fps] скачать через торрент бесплатно
  • Формула 1. Гран-При России. Гонка (2014) HDTVRip [H.264 / 720p] [hand made 50fps] скачать через торрент бесплатно
  • Формула 1. Гран-При России. Гонка (2014) HDTVRip [H.264] скачать через торрент бесплатно
  • Формула 1. Гран-При США. Квалификация (2014) HDTVRip [H.264]


    • Комментарии (0):

      Информация

      Информация

        Посетители, находящиеся в группе Гости, не могут оставлять комментарии в данной новости.

        ↓ Меню




        ↓ Опрос

        Вы добавили сайт в закладки?
        Да
        Нет


        Top 10 за месяц (Передачи)

        Михаил Задорнов. Лучшее - сборник лучших эстрадных номеров Михаила Задорнова за 30 лет (1984-2014) WEBRip скачать через торрент бесплатно

        (скачиваний: 7)
        Журнал | Всему свету по совету №1 (228) (январь 2017) [PDF]

        (скачиваний: 6)
        Фигурное катание. Гран-при 2017-2018. 3-й Этап. Кубок Китая 2017. Пекин (Китай). 2 День (04.11.2017) HDTV [H.264 / 1080i-LQ]

        (скачиваний: 6)
        Трэвис Хэйли. Адаптивный автомат Калашникова / Travis Haley: Adaptive Kalash (2011) WEBRip [720p-LQ] скачать через торрент бесплатно

        (скачиваний: 5)
        Святитель Феофан Затворник | Собрание сочинений [69 Томов] (2008) [FB2]

        (скачиваний: 5)
        Орел и решка. Перезагрузка (2017.11.07) WEB-DL [H.264 / 720p-LQ] (сезон 14: Ибица. Испания)

        (скачиваний: 4)
        Николай Ягодкин | Технология постановки навыков (2013) PCRec [H.264]

        (скачиваний: 4)
        Журнал | Рецепты на бис. Спецвыпуск №1 (19) (2017) [PDF]

        (скачиваний: 4)
        Айрэн По, Джули По | Нумерология, как профессия. Мы из матрицы. Книга 1 (2016) [DJVU]

        (скачиваний: 4)
        Comedy Club (2010-2014) SATRip / WEB-DLRip [Выпуск: 201-363] скачать через торрент бесплатно

        (скачиваний: 4)