.
Авторизация | Регистрация
Хочешь лучшие торренты? Добавь свой email!
Добавить

Торрент скачать бесплатно

» » Moto GP. Сезон 2017. Gran Premio Motul de la Comunitat. Этап 18. Гонка (12.11.2017) WEB-DL [H.264 / 720p-LQ] [VO] торрент скачать бесплатно




    Moto GP. Сезон 2017. Gran Premio Motul de la Comunitat. Этап 18. Гонка (12.11.2017) WEB-DL [H.264 / 720p-LQ] [VO] торрент скачать бесплатно

    Опубликовал: Админ | Дата: 13-11-2017, 05:00 | Просмотров: 0

    Телекомпания: BT Sport 2 HD
    Жанр: Спорт

    Описание

    Чемпионат мира по шоссейно-кольцевым мотогонкам Гран-при, также MotoGP (англ. FIM Road Racing World Championship Grand Prix)
    — главное престижное соревнование по шоссейно-кольцевым мотогонкам на гоночных мотоциклах. В настоящее время чемпионат разделен на три класса: MotoGP, Moto2 и Moto3. Все три класса используют специальные мотоциклы-прототипы, которые
    отсутствуют в свободной продаже и не разрешены к эксплуатации на дорогах общего пользования. Коммерческие права на чемпионат
    принадлежат международной компании Dorna Sports S.L.
    Релиз от:
    Продолжительность: 01: 30: 52
    Качество видео: WEB-DL
    Перевод: Одноголосый закадровый, любительский
    Язык: Русский
    Видео: AVC/H.264, 1280х720, ~4875 Kbps
    Аудио: AAC, 2 ch, ~192 Kbps

    General
    Complete name : E: Записи телевизионных шоуРазноеMotoGP. Сезон 2017. Этап 18 — Gran Premio Motul de la Comunitat. Гонка, 12.11.2017 545TV, A21 Network.mp4
    Format : MPEG-4
    Format profile : Base Media
    Codec ID : isom (isom/iso2/avc1/mp41)
    File size : 3.23 GiB
    Duration : 1 h 30 min
    Overall bit rate mode : Variable
    Overall bit rate : 5 082 kb/s
    Video
    ID : 2
    Format : AVC
    Format/Info : Advanced Video Codec
    Format profile : Main@L3.1
    Format settings, CABAC : No
    Format settings, ReFrames : 4 frames
    Format settings, GOP : M=3, N=15
    Codec ID : avc1
    Codec ID/Info : Advanced Video Coding
    Duration : 1 h 30 min
    Bit rate : 4 875 kb/s
    Width : 1 280 pixels
    Height : 720 pixels
    Display aspect ratio : 16: 9
    Frame rate mode : Constant
    Frame rate : 30.000 FPS
    Color space : YUV
    Chroma subsampling : 4: 2: 0
    Bit depth : 8 bits
    Scan type : Progressive
    Bits/(Pixel*Frame) : 0.176
    Stream size : 3.09 GiB (96%)
    Writing library : x264 core 142 r2479 dd79a61
    Encoding settings : cabac=0/ref=1/deblock=0: 0: 0/analyse=0: 0/me=dia/subme=0/psy=1/psy_rd=1.00: 0.00/mixed_ref=0/me_range=16/chroma_me=1/trellis=0/8x8dct=0/cqm=0/deadzone=21, 11/fast_pskip=1/chroma_qp_offset=0/threads=12/lookahead_threads=2/sliced_threads=0/nr=0/decimate=1/interlaced=0/bluray_compat=0/constrained_intra=0/bframes=2/b_pyramid=2/b_adapt=0/b_bias=0/direct=1/weightb=0/open_gop=0/weightp=0/keyint=15/keyint_min=8/scenecut=0/intra_refresh=0/rc=crf/mbtree=0/crf=23.0/qcomp=0.60/qpmin=0/qpmax=69/qpstep=4/ip_ratio=1.40/pb_ratio=1.30/aq=0
    Audio
    ID : 1
    Format : AAC
    Format/Info : Advanced Audio Codec
    Format profile : LC
    Codec ID : 40
    Duration : 1 h 30 min
    Duration_FirstFrame : 67 ms
    Bit rate mode : Variable
    Bit rate : 192 kb/s
    Channel(s) : 2 channels
    Channel positions : Front: L R
    Sampling rate : 44.1 kHz
    Frame rate : 43.066 FPS (1024 spf)
    Compression mode : Lossy
    Stream size : 127 MiB (4%)
    Default : Yes
    Alternate group : 1

    Скриншоты для ознакомления



    Все одноименные релизы в Клубе

    Время раздачи: с 10.00 до 0.00 (до появления первых 3-5 скачавших)


    Moto GP. Сезон 2017. Gran Premio Motul de la Comunitat. Этап 18. Гонка (12.11.2017) WEB-DL [H.264/720p-LQ] [VO]
    загрузка...
    Рейтинг →
     (голосов: 1, оценка 4/5, голосовать можно 1 раз )

    Другие торренты по теме:

  • Moto GP. Сезон 2017. Losail International Circuit. Этап 1. Гонка (26.03.2017) HDTVRip [H.264 / 720p-LQ] [VO]
  • Moto GP. Сезон 2017. Termas de Rio Hondo. Этап 2. Гонка (9.04.2017) HDTVRip [H.264 / 720p-LQ] [VO]
  • Moto GP. Сезон 2017. Red Bull Grand Prix of The Americas. Этап 3. Гонка (23.04.2017) HDTVRip [H.264 / 720p-LQ] [VO]
  • Moto GP. Сезон 2017. Gran Premio Red Bull de Espana. Этап 4. Гонка (07.05.2017) HDTVRip [H.264 / 720p-LQ] [VO]
  • Moto GP. Сезон 2017. HJC Helmets Grand Prix de France. Этап 5. Гонка (21.05.2017) HDTVRip [H.264 / 720p-LQ] [VO]
  • Moto GP. Сезон 2017. Gran Premio dItalia Oakley. Этап 6. Гонка (04.06.2017) WEB-DL [H.264 / 720p-LQ] [VO]
  • Moto GP. Сезон 2017. Gran Premi Monster Energy de Catalunya. Этап 7. Гонка (11.06.2017) WEB-DL [H.264 / 720p-LQ] [VO]
  • Moto GP. Сезон 2017. GoPro Motorrad Grand Prix Deutschland. Этап 9. Гонка (02.07.2017) WEB-DL [H.264 / 720p-LQ] [VO]


    • Комментарии (0):

      Информация

      Информация

        Посетители, находящиеся в группе Гости, не могут оставлять комментарии в данной новости.

        ↓ Меню




        ↓ Опрос

        Вы добавили сайт в закладки?
        Да
        Нет


        Top 10 за месяц (Передачи)

        Алексей Широков, Александр Шапочкин | Попаданец 2.0 (2017) [FB2]

        (скачиваний: 10)
        Фигурное катание. Гран-при 2017-2018. 3-й Этап. Кубок Китая 2017. Пекин (Китай). 2 День (04.11.2017) HDTV [H.264 / 1080i-LQ]

        (скачиваний: 8)
        Михаил Задорнов. Лучшее - сборник лучших эстрадных номеров Михаила Задорнова за 30 лет (1984-2014) WEBRip скачать через торрент бесплатно

        (скачиваний: 8)
        Орел и решка. Перезагрузка (2017.11.07) WEB-DL [H.264 / 720p-LQ] (сезон 14: Ибица. Испания)

        (скачиваний: 6)
        Журнал | Всему свету по совету №1 (228) (январь 2017) [PDF]

        (скачиваний: 6)
        Святитель Феофан Затворник | Собрание сочинений [69 Томов] (2008) [FB2]

        (скачиваний: 5)
        Трэвис Хэйли. Адаптивный автомат Калашникова / Travis Haley: Adaptive Kalash (2011) WEBRip [720p-LQ] скачать через торрент бесплатно

        (скачиваний: 5)
        Орел и решка. Перезагрузка (2017.10.30) WEB-DL [H.264 / 720p-LQ] (сезон 14: Барселона. Испания)

        (скачиваний: 5)
        Николай Ягодкин | Технология постановки навыков (2013) PCRec [H.264]

        (скачиваний: 4)
        Истории о современном искусстве (Неистовые модернисты) / Les aventuriers de lart moderne (2015) HDTVRip [H.264 / 720p-LQ] (сезон 1, серии 1-2 из 6) [обновляемая]

        (скачиваний: 4)