.
Авторизация | Регистрация
Хочешь лучшие торренты? Добавь свой email!
Добавить

Торрент скачать бесплатно

» » КВН-2017. Высшая лига. 1.2 финала. Игра 2 (2017.11.12) HDTVRip торрент скачать бесплатно




    КВН-2017. Высшая лига. 1.2 финала. Игра 2 (2017.11.12) HDTVRip торрент скачать бесплатно

    Опубликовал: Админ | Дата: 13-11-2017, 05:00 | Просмотров: 0

    Телекомпания: Первый канал HD
    Жанр: Юмор
    Ведущий: Александр Масляков
    Жюри: Константин Эрнст, Юлий Гусман, Валдис Пельш, Татьяна Навка, Михаил Галустян, Константин Лавроненко.

    Описание

    Что такое КВН, знают, без сомнения, все. В КВН играют во всем мире, это прежде всего молодежная игра. Постоянные конкурсные задания: Визитная карточка, Разминка, Конкурс капитанов, Музыкальный конкурс, Домашнее задание. Игру команд оценивает профессиональное жюри — люди, у которых с чувством юмора все в порядке, многие из них раньше сами играли в КВН. Среди членов жюри были Константин Эрнст, Леонид Парфенов, Юлий Гусман, Леонид Ярмольник, Валдис Пельш, Сергей Шолохов, Геннадий Хазанов и другие. Кроме самих игр проводятся ежегодные встречи: фестиваль команд КВН (с 1990 г., семь раз фестиваль проходил в г.Сочи), музыкальный фестиваль КВН, летний кубок КВН, международные товарищеские игры в КВН. Сборная КВН играет со сборными других стран. Уже состоялись игры между сборной КВН и сборными Америки, Австралии, Израиля... Игра в КВН для многих становится профессией, а многие благодаря игре связывают жизнь с искусством. Из КВН вышли: Леонид Якубович, Михаил Марфин, Татьяна Лазарева, Олег Филимонов, Юлий Гусман и многие другие.
    Продолжительность: 01: 49: 42
    Качество видео: HDTVRip
    Субтитры: Отсутствуют
    Видео: MPEG4, XviD, 720x400 (16: 9), 25.000 fps, 1 799 Kbps (0.250 bit/pixel)
    Аудио: MP3, 44.1 KHz, 2 ch, 192 Kbps, CBR
    Код: выделить все
    Общее
    Полное имя : D:[1]КВНКВН-2017. Высшая лига. 1.2 финала. Игра 2 (2017.11.12)_HDTVRip.avi
    Формат : AVI
    Формат/Информация : Audio Video Interleave
    Размер файла : 1, 53 Гбайт
    Продолжительность : 1 ч. 49 м.
    Общий поток : 2001 Кбит/сек
    Название фильма : KVN. Visshaya liga. 1.2 finala. Igra 2 (2017.11.12)_nnm-club.name
    Программа кодирования : VirtualDubModRus 1.5.10.2 (build 2542/release)
    Библиотека кодирования : VirtualDubMod build 2542/release
    Видео
    Идентификатор : 0
    Формат : MPEG-4 Visual
    Профиль формата : Advanced Simple@L5
    Параметр BVOP формата : 1
    Параметр QPel формата : Нет
    Параметр GMC формата : Без точки перехода
    Параметр матрицы формата : Default (H.263)
    Идентификатор кодека : XVID
    Идентификатор кодека/Подсказка : XviD
    Продолжительность : 1 ч. 49 м.
    Битрейт : 1799 Кбит/сек
    Ширина : 720 пикселей
    Высота : 400 пикселей
    Соотношение сторон : 16:9
    Частота кадров : 25, 000 кадров/сек
    Цветовое пространство : YUV
    Субдискретизация насыщенности : 4:2:0
    Битовая глубина : 8 бит
    Тип развёртки : Чересстрочная
    Порядок развёртки : Верхнее поле первое
    Метод сжатия : С потерями
    Бит/(Пиксели*Кадры) : 0.250
    Размер потока : 1, 38 Гбайт (90%)
    Библиотека кодирования : XviD 67
    Аудио
    Идентификатор : 1
    Формат : MPEG Audio
    Версия формата : Version 1
    Профиль формата : Layer 3
    Режим : Joint stereo
    Расширение режима : MS Stereo
    Идентификатор кодека : 55
    Идентификатор кодека/Подсказка : MP3
    Продолжительность : 1 ч. 49 м.
    Вид битрейта : Постоянный
    Битрейт : 192 Кбит/сек
    Каналы : 2 канала
    Частота : 44, 1 КГц
    Метод сжатия : С потерями
    Размер потока : 151 Мбайт (10%)
    Выравнивание : Разделение по промежуткам
    Продолжительность промежутка : 40 мс. (1, 00 видеокадр)
    Время предзагрузки промежутка : 500 мс.
    Библиотека кодирования : LAME3.99.5ЄЄЄЄЄЄЄЄЄЄ
    - Сборная московского Цирка
    - Спарта Номад (Астана)
    - Плюшки (Тверь)
    - Сборная Калининградской области
    - Команда из Забайкальского края (Чита).

    Скриншоты для ознакомления



    Все одноименные релизы в Клубе
    Время раздачи: 24/7. До первых 5 скачавших.


    КВН-2017. Высшая лига. 1.2 финала. Игра 2 (2017.11.12) HDTVRip
    загрузка...
    Рейтинг →
     (голосов: 1, оценка 5/5, голосовать можно 1 раз )

    Другие торренты по теме:

  • КВН-2015. Высшая лига. КВН на Красной поляне. Старт сезона (2015.02.08) HDTVRip [H.264 / 720p] скачать через торрент бесплатно
  • КВН-2016. Высшая лига. КВН на Красной поляне. Старт сезона (2016.02.22) SATRip
  • КВН-2016. Высшая лига. КВН на Красной поляне. Старт сезона (2016.02.22) WEB-DL [H.264 / 720i-LQ]
  • КВН-2016. Высшая лига. КВН на Красной поляне. Старт сезона (2016.02.22) HDTV [H.264 / 1080i-LQ]
  • КВН-2016. Высшая лига. КВН на Красной поляне. Старт сезона (2016.02.22) HDTVRip
  • КВН-2014. Высшая лига. 1 / 2 финала. Первая игра (2014.10.05) SATRip скачать через торрент бесплатно
  • КВН-2014. Высшая лига. 1 / 2 финала. Первая игра (2014.10.05) HDTVRip [H.264 / 720p-LQ]
  • КВН-2014. Высшая лига. 1.2 финала. 1 игра (2014.10.05) HDTV [H.264 / 1080i]


    • Комментарии (0):

      Информация

      Информация

        Посетители, находящиеся в группе Гости, не могут оставлять комментарии в данной новости.

        ↓ Меню




        ↓ Опрос

        Вы добавили сайт в закладки?
        Да
        Нет


        Top 10 за месяц (Передачи)

        Алексей Широков, Александр Шапочкин | Попаданец 2.0 (2017) [FB2]

        (скачиваний: 9)
        Михаил Задорнов. Лучшее - сборник лучших эстрадных номеров Михаила Задорнова за 30 лет (1984-2014) WEBRip скачать через торрент бесплатно

        (скачиваний: 8)
        Фигурное катание. Гран-при 2017-2018. 3-й Этап. Кубок Китая 2017. Пекин (Китай). 2 День (04.11.2017) HDTV [H.264 / 1080i-LQ]

        (скачиваний: 6)
        Орел и решка. Перезагрузка (2017.11.07) WEB-DL [H.264 / 720p-LQ] (сезон 14: Ибица. Испания)

        (скачиваний: 6)
        Журнал | Всему свету по совету №1 (228) (январь 2017) [PDF]

        (скачиваний: 6)
        Трэвис Хэйли. Адаптивный автомат Калашникова / Travis Haley: Adaptive Kalash (2011) WEBRip [720p-LQ] скачать через торрент бесплатно

        (скачиваний: 5)
        Святитель Феофан Затворник | Собрание сочинений [69 Томов] (2008) [FB2]

        (скачиваний: 5)
        Горная бригада (2014) HDTVRip [720p-LQ] [Серии: 1-12 из 12] скачать через торрент бесплатно

        (скачиваний: 4)
        Айрэн По, Джули По | Нумерология, как профессия. Мы из матрицы. Книга 1 (2016) [DJVU]

        (скачиваний: 4)
        Журнал | Рецепты на бис. Спецвыпуск №1 (19) (2017) [PDF]

        (скачиваний: 4)