.
Авторизация | Регистрация
Хочешь лучшие торренты? Добавь свой email!
Добавить

Торрент скачать бесплатно

» » Танцы (2017.11.11) WEB-DLRip (сезон 4, выпуск 15) торрент скачать бесплатно




    Танцы (2017.11.11) WEB-DLRip (сезон 4, выпуск 15) торрент скачать бесплатно

    Опубликовал: Админ | Дата: 13-11-2017, 05:00 | Просмотров: 0

    Телекомпания: ТНТ
    Жанр: Реалити-шоу, танцы, развлекательный, хореография
    Наставники: Татьяна Денисова, Сергей Шестепёров (Мигель) и Сергей Светлаков
    Ведущий: Ляйсан Утяшева

    Описание

    Танцы 4 сезон любимого сериала, в очередном сезон любимого сериалае любимого миллионами танцевального проекта нас ждет противостояние полов, потому что Егора Дружинина больше нет в числе членов жюри. Его место заняла знаменитый хореограф Татьяна Денисова. С появлением нового судьи будут связаны крупные изменения новых деталей проекта. В проекте окажутся хореографы Татьяны, которые станут трудиться в ее команде. Еще Татьяна Денисова добавит в критерии отбора участников новые фишки, в частности в испытания хореографией. Также у шоу будут полностью новые декорации и новая графика. Как будто это будет не очередной сезон любимого сериала, а новое шоу со сходным названием.

    Возраст: 16+ (зрителям, достигшим 16 лет)
    Релиз от: svlesin
    Продолжительность: 01: 48: 39
    Качество видео: WEB-DLRip
    Субтитры: Отсутствуют
    Видео: MPEG4, XviD, 720x400 (16: 9), 25.000 fps, 1 800 Kbps (0.250 bit/pixel)
    Аудио: MP3, 44.1 KHz, 2 ch, 128 Kbps, CBR
    Код: выделить все
    Общее
    Полное имя : D:[1]ТанцыТанцы. Сезон 4. Выпуск 15 (2017.11.11)_WEB-DLRip.avi
    Формат : AVI
    Формат/Информация : Audio Video Interleave
    Размер файла : 1, 52 Гбайт
    Продолжительность : 1 ч. 48 м.
    Общий поток : 2002 Кбит/сек
    Название фильма : Tanci.s.04e.15 (2017.11.11)_nnm-club.name
    Программа кодирования : VirtualDubModRus 1.5.10.2 (build 2542/release)
    Библиотека кодирования : VirtualDubMod build 2542/release
    Видео
    Идентификатор : 0
    Формат : MPEG-4 Visual
    Профиль формата : Advanced Simple@L5
    Параметр BVOP формата : 1
    Параметр QPel формата : Нет
    Параметр GMC формата : Без точки перехода
    Параметр матрицы формата : Default (H.263)
    Идентификатор кодека : XVID
    Идентификатор кодека/Подсказка : XviD
    Продолжительность : 1 ч. 48 м.
    Битрейт : 1800 Кбит/сек
    Ширина : 720 пикселей
    Высота : 400 пикселей
    Соотношение сторон : 16:9
    Частота кадров : 25, 000 кадров/сек
    Цветовое пространство : YUV
    Субдискретизация насыщенности : 4:2:0
    Битовая глубина : 8 бит
    Тип развёртки : Прогрессивная
    Метод сжатия : С потерями
    Бит/(Пиксели*Кадры) : 0.250
    Размер потока : 1, 37 Гбайт (90%)
    Библиотека кодирования : XviD 67
    Аудио
    Идентификатор : 1
    Формат : MPEG Audio
    Версия формата : Version 1
    Профиль формата : Layer 3
    Режим : Joint stereo
    Расширение режима : MS Stereo
    Идентификатор кодека : 55
    Идентификатор кодека/Подсказка : MP3
    Продолжительность : 1 ч. 48 м.
    Вид битрейта : Постоянный
    Битрейт : 192 Кбит/сек
    Каналы : 2 канала
    Частота : 44, 1 КГц
    Метод сжатия : С потерями
    Размер потока : 149 Мбайт (10%)
    Выравнивание : Разделение по промежуткам
    Продолжительность промежутка : 40 мс. (1, 00 видеокадр)
    Время предзагрузки промежутка : 500 мс.
    Библиотека кодирования : LAME3.99 ҐZH

    Скриншоты для ознакомления



    Все одноименные релизы в Клубе
    Время раздачи: 24/7. До первых 5 скачавших.


    Танцы (2017.11.11) WEB-DLRip (сезон 4, выпуск 15)
    загрузка...
    Рейтинг →
     (голосов: 1, оценка 5/5, голосовать можно 1 раз )

    Другие торренты по теме:

  • Танцы. Выпуск 10 (2014.10.25) WEB-DLRip скачать через торрент бесплатно
  • Танцы. Выпуск 13 (2014.11.15) WEB-DLRip
  • Танцы. Выпуск 18 (2014.12.20) WEB-DLRip скачать через торрент бесплатно
  • Танцы. Жизнь за кулисами (2015) WEB-DLRip скачать через торрент бесплатно
  • Танцы насмерть (2017) WEB-DLRip
  • Танцы. Выпуск 6 (2014.09.27) WEB-DLRip [H.264 / 720p] [hand made 50fps]
  • Танцы. Выпуск 6 (2014.09.27) WEB-DLRip
  • Танцы. Выпуск 7 (2014.10.04) WEB-DLRip [H.264 / 720p] [hand made 50fps] скачать через торрент бесплатно


    • Комментарии (0):

      Информация

      Информация

        Посетители, находящиеся в группе Гости, не могут оставлять комментарии в данной новости.

        ↓ Меню




        ↓ Опрос

        Вы добавили сайт в закладки?
        Да
        Нет


        Top 10 за месяц (Передачи)

        Алексей Широков, Александр Шапочкин | Попаданец 2.0 (2017) [FB2]

        (скачиваний: 9)
        Михаил Задорнов. Лучшее - сборник лучших эстрадных номеров Михаила Задорнова за 30 лет (1984-2014) WEBRip скачать через торрент бесплатно

        (скачиваний: 8)
        Фигурное катание. Гран-при 2017-2018. 3-й Этап. Кубок Китая 2017. Пекин (Китай). 2 День (04.11.2017) HDTV [H.264 / 1080i-LQ]

        (скачиваний: 8)
        Журнал | Всему свету по совету №1 (228) (январь 2017) [PDF]

        (скачиваний: 6)
        Орел и решка. Перезагрузка (2017.11.07) WEB-DL [H.264 / 720p-LQ] (сезон 14: Ибица. Испания)

        (скачиваний: 6)
        Трэвис Хэйли. Адаптивный автомат Калашникова / Travis Haley: Adaptive Kalash (2011) WEBRip [720p-LQ] скачать через торрент бесплатно

        (скачиваний: 5)
        Святитель Феофан Затворник | Собрание сочинений [69 Томов] (2008) [FB2]

        (скачиваний: 5)
        Comedy Club (2010-2014) SATRip / WEB-DLRip [Выпуск: 201-363] скачать через торрент бесплатно

        (скачиваний: 4)
        Орел и решка. Перезагрузка (2017.10.30) WEB-DL [H.264 / 720p-LQ] (сезон 14: Барселона. Испания)

        (скачиваний: 4)
        Айрэн По, Джули По | Нумерология, как профессия. Мы из матрицы. Книга 1 (2016) [DJVU]

        (скачиваний: 4)